+ ตอบกลับกระทู้
สรุปผลการค้นหา 1 ถึง 4 จากทั้งหมด 4
  1. #1
    Administrators รูปส่วนตัว Duckload.us
    สมัครเมื่อ
    Dec 2010
    โพสต์
    152,112
    Thanks
    7
    Thanked 159,085 Times in 69,585 Posts

    Lightbulb [ฝรั่ง]-[AMZN] Citadel (2023) ซิทาเดล [Complete 6 Episodes]-WEB-DL.H.264.1080p. [Master]-[พากย์ไทย/English 5.1 บรรยายไทย]



    8 ปีก่อน ซิทาเดล องค์กรสายลับอิสระระดับโลกถูกแมนติคอร์ที่เป็นสมาคมใ หม่ทำลายลง ความทรงจำของสายลับแถวหน้าอย่างเมสัน เคน (ริชาร์ด แมดเดน) และนาเดีย ซินห์ (ปริยังกา โจปรา โจนาส) ถูกลบไป ทำให้พวกเขาเกือบหนีเอาชีวิตไม่รอด 8 ปีต่อมา เบอร์นาร์ด ออร์ลิค (สแตนลีย์ ทุชชี่) อดีตเพื่อนร่วมงานของเมสันมาขอให้เขาช่วยเพื่อป้องกั นไม่ให้แมนติคอร์จัดระเบียบใหม่ให้โลก


    Video
    ID : 1
    Format : AVC
    Format/Info : Advanced Video Codec
    Format profile : High@L4
    Format settings : CABAC / 4 Ref Frames
    Format settings, CABAC : Yes
    Format settings, Reference frames : 4 frames
    Codec ID : V_MPEG4/ISO/AVC
    Duration : 49 min 28 s
    Bit rate mode : Constant
    Bit rate : 5 312 kb/s
    Nominal bit rate : 10 000 kb/s
    Width : 1 920 pixels
    Height : 800 pixels
    Display aspect ratio : 2.40:1
    Frame rate mode : Constant
    Frame rate : 24.000 FPS
    Color space : YUV
    Chroma subsampling : 4:2:0
    Bit depth : 8 bits
    Scan type : Progressive
    Bits/(Pixel*Frame) : 0.144
    Stream size : 1.84 GiB (81%)
    Default : Yes
    Forced : No
    Color range : Limited
    Color primaries : BT.709
    Transfer characteristics : BT.709
    Matrix coefficients : BT.709

    Audio #1
    ID : 2
    Format : E-AC-3
    Format/Info : Enhanced AC-3
    Commercial name : Dolby Digital Plus
    Codec ID : A_EAC3
    Duration : 49 min 28 s
    Bit rate mode : Constant
    Bit rate : 640 kb/s
    Channel(s) : 6 channels
    Channel layout : L R C LFE Ls Rs
    Sampling rate : 48.0 kHz
    Frame rate : 31.250 FPS (1536 SPF)
    Compression mode : Lossy
    Stream size : 227 MiB (10%)
    Language : English
    Service kind : Complete Main
    Default : Yes
    Forced : No

    Audio #2
    ID : 3
    Format : E-AC-3
    Format/Info : Enhanced AC-3
    Commercial name : Dolby Digital Plus
    Codec ID : A_EAC3
    Duration : 49 min 28 s
    Bit rate mode : Constant
    Bit rate : 640 kb/s
    Channel(s) : 6 channels
    Channel layout : L R C LFE Ls Rs
    Sampling rate : 48.0 kHz
    Frame rate : 31.250 FPS (1536 SPF)
    Compression mode : Lossy
    Stream size : 227 MiB (10%)
    Language : Thai
    Service kind : Complete Main
    Default : Yes
    Forced : No

    Text #1
    ID : 4
    Format : UTF-8
    Codec ID : S_TEXT/UTF8
    Codec ID/Info : UTF-8 Plain Text
    Duration : 3 s 500 ms
    Bit rate : 148 b/s
    Frame rate : 0.571 FPS
    Count of elements : 2
    Stream size : 65.0 Bytes (0%)
    Language : English
    Default : Yes
    Forced : No

    Text #2
    ID : 5
    Format : UTF-8
    Codec ID : S_TEXT/UTF8
    Codec ID/Info : UTF-8 Plain Text
    Duration : 46 min 0 s
    Bit rate : 124 b/s
    Frame rate : 0.211 FPS
    Count of elements : 583
    Stream size : 42.0 KiB (0%)
    Language : Thai
    Default : Yes
    Forced : No

    Text #3
    ID : 6
    Format : UTF-8
    Codec ID : S_TEXT/UTF8
    Codec ID/Info : UTF-8 Plain Text
    Duration : 44 min 18 s
    Bit rate : 4 b/s
    Frame rate : 0.010 FPS
    Count of elements : 26
    Stream size : 1.37 KiB (0%)
    Language : Thai
    Default : Yes
    Forced : No






    ซิทาเดล_S01E06_ความลับในความมืดต้องการปาฏิหาริย์.m kv
    http://www.filecondo.com/dl.php?f=fefa1c1Q36gS

    ซิทาเดล_S01E05_เวลาทำให้เราเป็นศัตรูกัน.mkv
    http://www.filecondo.com/dl.php?f=Kf147e1Q369o

    ซิทาเดล_S01E04_บอกเธอหมดทุกอย่าง.mkv
    http://www.filecondo.com/dl.php?f=o2ce531Q366p

    ซิทาเดล_S01E03_เงามืดที่ไม่สิ้นสุด.mkv
    http://www.filecondo.com/dl.php?f=b008a01Q3620

    ซิทาเดล_S01E02_สายลับปรากฏตัวตอนกลางคืน.mkv
    http://www.filecondo.com/dl.php?f=hb60b61Q35Tf

    ซิทาเดล_S01E01_คนลึกลับ.mkv
    http://www.filecondo.com/dl.php?f=V41bb01Q35O7

  2. The Following 5 Users Say Thank You to Duckload.us For This Useful Post:

    kappa (06-29-2023), noi54 (06-08-2023), petpina2010 (05-30-2023), Wesker_TOT (05-29-2023), whiteherbie (06-21-2023)

  3. #2
    Senior Member
    สมัครเมื่อ
    Dec 2013
    โพสต์
    6,282
    Thanks
    8,265
    Thanked 0 Times in 0 Posts
    ขอบคุณครับ...

  4. #3
    Senior Member รูปส่วนตัว petpina2010
    สมัครเมื่อ
    Jun 2020
    โพสต์
    258
    Thanks
    256
    Thanked 0 Times in 0 Posts
    ขอบคุณครับ

  5. #4
    Senior Member
    สมัครเมื่อ
    Dec 2011
    โพสต์
    3,112
    Thanks
    681
    Thanked 0 Times in 0 Posts
    Thank you ka

+ ตอบกลับกระทู้

ข้อมูลกระทู้

Users Browsing this Thread

ในขณะนี้มี 1 ท่านดูกระทู้อยู่. (0 สมาชิกและ 1 ผู้เยี่ยมชม)

     

กฎการโพสต์ข้อความ

  • ท่าน ไม่สามารถ ตั้งกระทู้ใหม่ได้
  • ท่าน ไม่สามารถ ตอบกระทู้ได้
  • ท่าน ไม่สามารถ แนบไฟล์ได้
  • ท่าน ไม่สามารถ แก้ไขข้อความโพสต์ได้
  • BB code สถานะ เปิด
  • Smilies สถานะ เปิด
  • [IMG] สถานะ เปิด
  • HTML สถานะ ปิด