+ ตอบกลับกระทู้
สรุปผลการค้นหา 1 ถึง 7 จากทั้งหมด 7
  1. #1
    Administrators รูปส่วนตัว Duckload.us
    สมัครเมื่อ
    Dec 2010
    โพสต์
    152,670
    Thanks
    7
    Thanked 159,860 Times in 69,926 Posts

    Lightbulb [ฝรั่ง]-[AMZN] Reacher (2022) รีชเชอร์ ยอดคนสืบระห่ำ Season 1 [เสียง:อังกฤษ-ไทย AC-3 5.1][บรรยาย: ไทย PGS และ ไทย/อังกฤษ SRT]-WEB-DL.H.264.1080p. [From HD-TV]-[พากย์ไทย บรรยายไทย]






    เรื่องย่อ
    เมื่ออดีตสารวัตรทหาร แจ็ค รีชเชอร์ได้ถูกจับในข้อหาฆาตกรรมที่เขาไม่ได้ก่อ เขาได้ตกไปอยู่ท่ามกลางแผนร้ายที่เกี่ยวพันกับตำรวจจ อมคดโกง นักธุรกิจที่มีเงื่อนงำ และนักการเมืองคิดไม่ซื่อ เขามีเพียงสติปัญญาเป็นอาวุธ และเขาต้องหาคำตอบว่าเกิดอะไรขึ้นในมาร์เกรฟ รัฐจอร์เจีย รีเชอร์ ซีซันแรกนั้นสร้างมาจากหนังสือขายดีระดับนานาชาติ เดอะ คิลลิง ฟลอร์ โดย ลี ไชลด์


    Video
    ID : 1
    Format : AVC
    Format/Info : Advanced Video Codec
    Format profile : High@L4
    Format settings : CABAC / 4 Ref Frames
    Format settings, CABAC : Yes
    Format settings, Reference fra : 4 frames
    Codec ID : V_MPEG4/ISO/AVC
    Duration : 54 min 21 s
    Bit rate mode : Constant
    Bit rate : 8 457 kb/s
    Nominal bit rate : 10 000 kb/s
    Width : 1 920 pixels
    Height : 1 080 pixels
    Display aspect ratio : 16:9
    Frame rate mode : Constant
    Frame rate : 24.000 FPS
    Color space : YUV
    Chroma subsampling : 4:2:0
    Bit depth : 8 bits
    Scan type : Progressive
    Bits/(Pixel*Frame) : 0.170
    Stream size : 3.21 GiB (87%)
    Default : Yes
    Forced : No
    Color range : Limited
    Color primaries : BT.709
    Transfer characteristics : BT.709
    Matrix coefficients : BT.709

    Audio #1
    ID : 2
    Format : E-AC-3
    Format/Info : Enhanced AC-3
    Commercial name : Dolby Digital Plus
    Codec ID : A_EAC3
    Duration : 54 min 21 s
    Bit rate mode : Constant
    Bit rate : 640 kb/s
    Channel(s) : 6 channels
    Channel layout : L R C LFE Ls Rs
    Sampling rate : 48.0 kHz
    Frame rate : 31.250 FPS (1536 SPF)
    Compression mode : Lossy
    Stream size : 249 MiB (7%)
    Title : [Thai-AC-3]
    Language : Thai
    Service kind : Complete Main
    Default : Yes
    Forced : No

    Audio #2
    ID : 3
    Format : E-AC-3
    Format/Info : Enhanced AC-3
    Commercial name : Dolby Digital Plus
    Codec ID : A_EAC3
    Duration : 54 min 21 s
    Bit rate mode : Constant
    Bit rate : 640 kb/s
    Channel(s) : 6 channels
    Channel layout : L R C LFE Ls Rs
    Sampling rate : 48.0 kHz
    Frame rate : 31.250 FPS (1536 SPF)
    Compression mode : Lossy
    Stream size : 249 MiB (7%)
    Title : [English-AC-3]
    Language : English
    Service kind : Complete Main
    Default : No
    Forced : No

    Text #1
    ID : 4
    Format : PGS
    Muxing mode : zlib
    Codec ID : S_HDMV/PGS
    Codec ID/Info : Picture based subtitle format used on BDs/HD-DVDs
    Duration : 46 min 59 s
    Bit rate : 847 b/s
    Count of elements : 18
    Stream size : 292 KiB (0%)
    Title : [Thai AMZN Forced PGS]
    Language : Thai
    Default : Yes
    Forced : No

    Text #2
    ID : 5
    Format : PGS
    Muxing mode : zlib
    Codec ID : S_HDMV/PGS
    Codec ID/Info : Picture based subtitle format used on BDs/HD-DVDs
    Duration : 52 min 46 s
    Bit rate : 70.1 kb/s
    Count of elements : 1414
    Stream size : 26.5 MiB (1%)
    Title : [Thai AMZN PGS]
    Language : Thai
    Default : No
    Forced : No

    Text #3
    ID : 6
    Format : UTF-8
    Codec ID : S_TEXT/UTF8
    Codec ID/Info : UTF-8 Plain Text
    Duration : 46 min 59 s
    Bit rate : 2 b/s
    Count of elements : 9
    Stream size : 727 Bytes (0%)
    Title : Thai Forced SRT
    Language : Thai
    Default : No
    Forced : No

    Text #4
    ID : 7
    Format : UTF-8
    Codec ID : S_TEXT/UTF8
    Codec ID/Info : UTF-8 Plain Text
    Duration : 52 min 46 s
    Bit rate : 169 b/s
    Count of elements : 707
    Stream size : 65.6 KiB (0%)
    Title : Thai SRT
    Language : Thai
    Default : No
    Forced : No

    Text #5
    ID : 8
    Format : UTF-8
    Codec ID : S_TEXT/UTF8
    Codec ID/Info : UTF-8 Plain Text
    Duration : 52 min 46 s
    Bit rate : 87 b/s
    Count of elements : 1058
    Stream size : 33.8 KiB (0%)
    Title : English SRT
    Language : English
    Default : No
    Forced : No

    Menu
    00:00:00.000 : en:1. Amazon Original
    00:00:06.000 : en:Scene 2
    00:00:47.000 : en:3. Title Sequence
    00:00:58.000 : en:Scene 4
    00:02:48.000 : en:Scene 5
    00:04:01.000 : en:Scene 6
    00:05:31.000 : en:Scene 7
    00:07:18.000 : en:Scene 8
    00:10:22.000 : en:Scene 9
    00:11:53.000 : en:Scene 10
    00:13:13.000 : en:Scene 11
    00:15:15.000 : en:Scene 12
    00:16:12.000 : en:Scene 13
    00:21:02.000 : en:Scene 14
    00:21:22.000 : en:Scene 15
    00:24:03.000 : en:Scene 16
    00:28:47.000 : en:Scene 17
    00:31:13.000 : en:Scene 18
    00:34:12.000 : en:Scene 19
    00:36:16.000 : en:Scene 20
    00:36:51.000 : en:Scene 21
    00:40:10.000 : en:Scene 22
    00:45:30.000 : en:Scene 23
    00:47:07.000 : en:Scene 24
    00:50:31.000 : en:Scene 25




    Reacher_(2022)__รีชเชอร์_ยอดคนสืบระห่ำ_S01E08_พาย. 1080p.Modified_By_mxn.mkv
    http://www.filecondo.com/dl.php?f=v257331Q3TOJ

    Reacher_(2022)__รีชเชอร์_ยอดคนสืบระห่ำ_S01E07_รีชเ ชอร์ไม่พูดอะไร.1080p.Modified_By_mxn.mkv
    http://www.filecondo.com/dl.php?f=103f6a1Q3TKq

    Reacher_(2022)__รีชเชอร์_ยอดคนสืบระห่ำ_S01E06_กระด าษ.1080p.Modified_By_mxn.mkv
    http://www.filecondo.com/dl.php?f=Eceef61Q3TFe

    Reacher_(2022)__รีชเชอร์_ยอดคนสืบระห่ำ_S01E05_ปราศ จากคำขอโทษ.1080p.Modified_By_mxn.mkv
    http://www.filecondo.com/dl.php?f=G4510d1Q3TgL

    Reacher_(2022)__รีชเชอร์_ยอดคนสืบระห่ำ_S01E04_บนต้ นไม้.1080p.Modified_By_mxn.mkv
    http://www.filecondo.com/dl.php?f=Z39b021Q3T6o

    Reacher_(2022)__รีชเชอร์_ยอดคนสืบระห่ำ_S01E03_เต็ม ช้อน.1080p.Modified_By_mxn.mkv
    http://www.filecondo.com/dl.php?f=s1c3f91Q3SZn

    Reacher_(2022)__รีชเชอร์_ยอดคนสืบระห่ำ_S01E02_เต้น กันครั้งแรก.1080p.Modified_By_mxn.mkv
    http://www.filecondo.com/dl.php?f=Af49dd1Q3SRP

    Reacher_(2022)__รีชเชอร์_ยอดคนสืบระห่ำ_S01E01_ขอต้ อนรับสู่มาร์เกรฟ.1080p.Modified_By_mxn.mkv
    http://www.filecondo.com/dl.php?f=2e8ac01Q3SKw

  2. The Following 5 Users Say Thank You to Duckload.us For This Useful Post:

    Jodz14 (05-30-2023), petpina2010 (05-31-2023), sawara (06-20-2023), Wesker_TOT (06-01-2023), whiteherbie (10-30-2023)

  3. #2
    Senior Member รูปส่วนตัว petpina2010
    สมัครเมื่อ
    Jun 2020
    โพสต์
    265
    Thanks
    261
    Thanked 0 Times in 0 Posts
    ขอบคุณครับ

  4. #3
    Senior Member
    สมัครเมื่อ
    Dec 2013
    โพสต์
    6,362
    Thanks
    8,344
    Thanked 0 Times in 0 Posts
    ขอบคุณครับ...

  5. #4
    Senior Member
    สมัครเมื่อ
    Jul 2012
    โพสต์
    8,660
    Thanks
    0
    Thanked 0 Times in 0 Posts
    ขอบคุณมากจ้า

  6. #5
    Senior Member
    สมัครเมื่อ
    Dec 2013
    โพสต์
    1,091
    Thanks
    1,056
    Thanked 0 Times in 0 Posts
    ขอบคุณครับบ

  7. #6
    Senior Member
    สมัครเมื่อ
    Jul 2013
    โพสต์
    3,742
    Thanks
    0
    Thanked 0 Times in 0 Posts
    ขอบคุณครับ

  8. #7
    Senior Member
    สมัครเมื่อ
    Dec 2011
    โพสต์
    3,142
    Thanks
    707
    Thanked 0 Times in 0 Posts
    Thank you ka

+ ตอบกลับกระทู้

ข้อมูลกระทู้

Users Browsing this Thread

ในขณะนี้มี 1 ท่านดูกระทู้อยู่. (0 สมาชิกและ 1 ผู้เยี่ยมชม)

     

กฎการโพสต์ข้อความ

  • ท่าน ไม่สามารถ ตั้งกระทู้ใหม่ได้
  • ท่าน ไม่สามารถ ตอบกระทู้ได้
  • ท่าน ไม่สามารถ แนบไฟล์ได้
  • ท่าน ไม่สามารถ แก้ไขข้อความโพสต์ได้
  • BB code สถานะ เปิด
  • Smilies สถานะ เปิด
  • [IMG] สถานะ เปิด
  • HTML สถานะ ปิด