+ ตอบกลับกระทู้
สรุปผลการค้นหา 1 ถึง 1 จากทั้งหมด 1
  1. #1
    Administrators รูปส่วนตัว Duckload.us
    สมัครเมื่อ
    Dec 2010
    โพสต์
    150,776
    Thanks
    7
    Thanked 158,041 Times in 69,006 Posts

    Lightbulb [จีน]-[* WeTV *] Here We Meet Again (2023) : กลับมารักกันอีกครั้ง | Complete Season 1 [เสียงไทย + เสียงจีน] [บรรยายไทย , จีน , อังกฤษ] [เสียงไทย + ซับไทย From WeTV + ซับ SRT , PGS]-WEB-DL.H.264.1080p.



    กลับมารักกันอีกครั้ง | Here We Meet Again | 三 分 野 (2023) ซีรีส์แนวโรแมนติกคอมเมดี้ ดัดแปลงจากนิยายชื่อเดียวกันของนักเขียนเอ่อร์ตงทู่จ ื่อ บอกเล่าเรื่องราวของ เซี่ยงหยวน (อู๋เชี่ยน) สาวสวยอาภัพ พ่อแม่เสียชีวิตตั้งแต่ยังเด็ก เป็นนักแคสเกมชื่อดัง ทายาทบริษัทระบบเทคโนโลยีนำร่อง ตงเหอกรุ๊ป เป็นสาวโสดที่ไม่คิดจะแต่งงาน เพื่อแลกเปลี่ยนกับการไม่ไปออกเดต เธอทำสัญญากับคุณปู่ ตกลงไปทำงานที่สาขาย่อย ประจำเมืองซีอาน แต่แล้วเหตุการณ์ที่ไม่คาดฝันก็เกิดขึ้น เมื่อเธอได้เจอกับ สวีเยี่ยนสือ (จางปินปิน) อดีตเพื่อนนักเรียนมัธยมปลาย หนุ่มที่เคยแอบชอบแต่ต้องจบกันไปแบบเจ็บๆ ตอนนี้เขาเป็นหัวหน้าฝ่ายไอทีในบริษัทที่เธอต้องไปดู แล ทั้งสองร่วมมือกันเผชิญวิกฤตต่างๆ และกอบกู้บริษัท ความใกล้ชิดจุดประกายความรักของพวกเขาอีกครั้ง สุดท้ายแล้วความรักของเซี่ยงหยวนและสวีเยี่ยนสือ จะลงเอยอย่างไร ติดตามได้ใน Here We Meet Again (2023) กลับมารักกันอีกครั้ง

    Video
    ID : 1
    Format : AVC
    Format/Info : Advanced Video Codec
    Format profile : High@L4
    Format settings : CABAC / 4 Ref Frames
    Format settings, CABAC : Yes
    Format settings, Reference frames : 4 frames
    Codec ID : V_MPEG4/ISO/AVC
    Duration : 47 min 4 s
    Bit rate : 2 364 kb/s
    Width : 1 920 pixels
    Height : 1 080 pixels
    Display aspect ratio : 16:9
    Frame rate mode : Constant
    Frame rate : 25.000 FPS
    Color space : YUV
    Chroma subsampling : 4:2:0
    Bit depth : 8 bits
    Scan type : Progressive
    Bits/(Pixel*Frame) : 0.046
    Stream size : 793 MiB (81%)
    Title : Here.We.Meet.Again.2023.S01E01.1080p.WeTV.WEB-DL.DDP2.0.x264_SkiesIT
    Writing library : x264 core 148
    Encoding settings : cabac=1 / ref=3 / deblock=1:0:0 / analyse=0x3:0x113 / me=umh / subme=10 / psy=1 / psy_rd=1.00:0.00 / mixed_ref=1 / me_range=24 / chroma_me=1 / trellis=2 / 8x8dct=1 / cqm=0 / deadzone=21,11 / fast_pskip=1 / chroma_qp_offset=-2 / threads=24 / lookahead_threads=2 / sliced_threads=0 / nr=0 / decimate=1 / interlaced=0 / bluray_compat=0 / constrained_intra=0 / bframes=3 / b_pyramid=2 / b_adapt=2 / b_bias=0 / direct=1 / weightb=1 / open_gop=0 / weightp=2 / keyint=125 / keyint_min=63 / scenecut=0 / intra_refresh=0 / rc_lookahead=60 / rc=2pass / mbtree=1 / bitrate=2364 / ratetol=1.0 / qcomp=0.60 / qpmin=0 / qpmax=69 / qpstep=4 / cplxblur=20.0 / qblur=0.5 / vbv_maxrate=4728 / vbv_bufsize=7092 / nal_hrd=none / filler=0 / ip_ratio=1.40 / aq=1:1.00
    Language : Chinese
    Default : Yes
    Forced : No

    Audio #1
    ID : 2
    Format : E-AC-3
    Format/Info : Enhanced AC-3
    Commercial name : Dolby Digital Plus
    Codec ID : A_EAC3
    Duration : 47 min 4 s
    Bit rate mode : Constant
    Bit rate : 192 kb/s
    Channel(s) : 2 channels
    Channel layout : L R
    Sampling rate : 48.0 kHz
    Frame rate : 31.250 FPS (1536 SPF)
    Compression mode : Lossy
    Stream size : 64.6 MiB (7%)
    Language : Thai
    Service kind : Complete Main
    Default : Yes
    Forced : No

    Audio #2
    ID : 3
    Format : E-AC-3
    Format/Info : Enhanced AC-3
    Commercial name : Dolby Digital Plus
    Codec ID : A_EAC3
    Duration : 47 min 4 s
    Bit rate mode : Constant
    Bit rate : 192 kb/s
    Channel(s) : 2 channels
    Channel layout : L R
    Sampling rate : 48.0 kHz
    Frame rate : 31.250 FPS (1536 SPF)
    Compression mode : Lossy
    Stream size : 64.6 MiB (7%)
    Language : Chinese
    Service kind : Complete Main
    Default : No
    Forced : No

    Text #1
    ID : 4
    Format : UTF-8
    Codec ID : S_TEXT/UTF8
    Codec ID/Info : UTF-8 Plain Text
    Duration : 42 min 39 s
    Bit rate : 48 b/s
    Frame rate : 0.355 FPS
    Count of elements : 908
    Stream size : 15.2 KiB (0%)
    Title : Simplified
    Language : Chinese
    Default : No
    Forced : No

    Text #2
    ID : 5
    Format : UTF-8
    Codec ID : S_TEXT/UTF8
    Codec ID/Info : UTF-8 Plain Text
    Duration : 42 min 39 s
    Bit rate : 48 b/s
    Frame rate : 0.355 FPS
    Count of elements : 908
    Stream size : 15.2 KiB (0%)
    Title : Traditional
    Language : Chinese
    Default : No
    Forced : No

    Text #3
    ID : 6
    Format : UTF-8
    Codec ID : S_TEXT/UTF8
    Codec ID/Info : UTF-8 Plain Text
    Duration : 46 min 49 s
    Bit rate : 58 b/s
    Frame rate : 0.364 FPS
    Count of elements : 1023
    Stream size : 20.1 KiB (0%)
    Language : English
    Default : No
    Forced : No

    Text #4
    ID : 7
    Format : UTF-8
    Codec ID : S_TEXT/UTF8
    Codec ID/Info : UTF-8 Plain Text
    Duration : 46 min 49 s
    Bit rate : 169 b/s
    Frame rate : 0.344 FPS
    Count of elements : 967
    Stream size : 58.0 KiB (0%)
    Title : SRT From WeTV
    Language : Thai
    Default : Yes
    Forced : No

    Text #5
    ID : 8
    Format : PGS
    Muxing mode : zlib
    Codec ID : S_HDMV/PGS
    Codec ID/Info : Picture based subtitle format used on BDs/HD-DVDs
    Duration : 46 min 49 s
    Bit rate : 59.8 kb/s
    Frame rate : 0.688 FPS
    Count of elements : 1934
    Stream size : 20.0 MiB (2%)
    Title : Angsana PGS
    Language : Thai
    Default : No
    Forced : No

    Text #6
    ID : 9
    Format : PGS
    Muxing mode : zlib
    Codec ID : S_HDMV/PGS
    Codec ID/Info : Picture based subtitle format used on BDs/HD-DVDs
    Duration : 46 min 49 s
    Bit rate : 59.8 kb/s
    Frame rate : 0.688 FPS
    Count of elements : 1934
    Stream size : 20.0 MiB (2%)
    Title : Angsana PGS [Yellow]
    Language : Thai
    Default : No
    Forced : No

    Text #7
    ID : 10
    Format : PGS
    Muxing mode : zlib
    Codec ID : S_HDMV/PGS
    Codec ID/Info : Picture based subtitle format used on BDs/HD-DVDs
    Duration : 46 min 49 s
    Bit rate : 56.6 kb/s
    Frame rate : 0.688 FPS
    Count of elements : 1934
    Stream size : 19.0 MiB (2%)
    Title : Cordia New PGS
    Language : Thai
    Default : No
    Forced : No

    Text #8
    ID : 11
    Format : PGS
    Muxing mode : zlib
    Codec ID : S_HDMV/PGS
    Codec ID/Info : Picture based subtitle format used on BDs/HD-DVDs
    Duration : 46 min 49 s
    Bit rate : 56.6 kb/s
    Frame rate : 0.688 FPS
    Count of elements : 1934
    Stream size : 19.0 MiB (2%)
    Title : Cordia New PGS [Yellow]
    Language : Thai
    Default : No
    Forced : No

    Text #9
    ID : 12
    Format : PGS
    Muxing mode : zlib
    Codec ID : S_HDMV/PGS
    Codec ID/Info : Picture based subtitle format used on BDs/HD-DVDs
    Duration : 46 min 49 s
    Bit rate : 55.9 kb/s
    Frame rate : 0.688 FPS
    Count of elements : 1934
    Stream size : 18.7 MiB (2%)
    Title : Droid Sans PGS
    Language : Thai
    Default : No
    Forced : No

    Text #10
    ID : 13
    Format : PGS
    Muxing mode : zlib
    Codec ID : S_HDMV/PGS
    Codec ID/Info : Picture based subtitle format used on BDs/HD-DVDs
    Duration : 46 min 49 s
    Bit rate : 55.9 kb/s
    Frame rate : 0.688 FPS
    Count of elements : 1934
    Stream size : 18.7 MiB (2%)
    Title : Droid Sans PGS [Yellow]
    Language : Thai
    Default : No
    Forced : No











    Here.We.Meet.Again.2023.S01E32.1080p.WeTV.WEB-DL.DDP2.0.x264_SkiesIT.mkv
    http://www.filecondo.com/dl.php?f=jbe12a1Qma0o

    Here.We.Meet.Again.2023.S01E31.1080p.WeTV.WEB-DL.DDP2.0.x264_SkiesIT.mkv
    http://www.filecondo.com/dl.php?f=d2cb6b1Qm9Zq

    Here.We.Meet.Again.2023.S01E30.1080p.WeTV.WEB-DL.DDP2.0.x264_SkiesIT.mkv
    http://www.filecondo.com/dl.php?f=H362801Qm9Ys

    Here.We.Meet.Again.2023.S01E29.1080p.WeTV.WEB-DL.DDP2.0.x264_SkiesIT.mkv
    http://www.filecondo.com/dl.php?f=Pc403c1Qm9Xu

    Here.We.Meet.Again.2023.S01E28.1080p.WeTV.WEB-DL.DDP2.0.x264_SkiesIT.mkv
    http://www.filecondo.com/dl.php?f=A35d671Qm9Ww

    Here.We.Meet.Again.2023.S01E27.1080p.WeTV.WEB-DL.DDP2.0.x264_SkiesIT.mkv
    http://www.filecondo.com/dl.php?f=jf65341Qm9Vy

    Here.We.Meet.Again.2023.S01E26.1080p.WeTV.WEB-DL.DDP2.0.x264_SkiesIT.mkv
    http://www.filecondo.com/dl.php?f=9df87c1Qm9UB

    Here.We.Meet.Again.2023.S01E25.1080p.WeTV.WEB-DL.DDP2.0.x264_SkiesIT.mkv
    http://www.filecondo.com/dl.php?f=L03a5c1Qm9TC

    Here.We.Meet.Again.2023.S01E24.1080p.WeTV.WEB-DL.DDP2.0.x264_SkiesIT.mkv
    http://www.filecondo.com/dl.php?f=U89cf21Qm9SF

    Here.We.Meet.Again.2023.S01E23.1080p.WeTV.WEB-DL.DDP2.0.x264_SkiesIT.mkv
    http://www.filecondo.com/dl.php?f=L9e6c51Qm9RG

    Here.We.Meet.Again.2023.S01E22.1080p.WeTV.WEB-DL.DDP2.0.x264_SkiesIT.mkv
    http://www.filecondo.com/dl.php?f=5f23f41Qm9QH

    Here.We.Meet.Again.2023.S01E21.1080p.WeTV.WEB-DL.DDP2.0.x264_SkiesIT.mkv
    http://www.filecondo.com/dl.php?f=7779101Qm9PJ

    Here.We.Meet.Again.2023.S01E20.1080p.WeTV.WEB-DL.DDP2.0.x264_SkiesIT.mkv
    http://www.filecondo.com/dl.php?f=10a73c1Qm9OM

    Here.We.Meet.Again.2023.S01E19.1080p.WeTV.WEB-DL.DDP2.0.x264_SkiesIT.mkv
    http://www.filecondo.com/dl.php?f=Ofc24f1Qm9NO

    Here.We.Meet.Again.2023.S01E18.1080p.WeTV.WEB-DL.DDP2.0.x264_SkiesIT.mkv
    http://www.filecondo.com/dl.php?f=Va911a1Qm9MQ

    Here.We.Meet.Again.2023.S01E17.1080p.WeTV.WEB-DL.DDP2.0.x264_SkiesIT.mkv
    http://www.filecondo.com/dl.php?f=ia37151Qm9LS

    Here.We.Meet.Again.2023.S01E16.1080p.WeTV.WEB-DL.DDP2.0.x264_SkiesIT.mkv
    http://www.filecondo.com/dl.php?f=v994711Qm9KU

    Here.We.Meet.Again.2023.S01E15.1080p.WeTV.WEB-DL.DDP2.0.x264_SkiesIT.mkv
    http://www.filecondo.com/dl.php?f=laff5c1Qm9JX

    Here.We.Meet.Again.2023.S01E14.1080p.WeTV.WEB-DL.DDP2.0.x264_SkiesIT.mkv
    http://www.filecondo.com/dl.php?f=K18bb41Qm9IY

    Here.We.Meet.Again.2023.S01E13.1080p.WeTV.WEB-DL.DDP2.0.x264_SkiesIT.mkv
    http://www.filecondo.com/dl.php?f=U96a651Qm9I1

    Here.We.Meet.Again.2023.S01E12.1080p.WeTV.WEB-DL.DDP2.0.x264_SkiesIT.mkv
    http://www.filecondo.com/dl.php?f=Dcc3b91Qm9H2

    Here.We.Meet.Again.2023.S01E11.1080p.WeTV.WEB-DL.DDP2.0.x264_SkiesIT.mkv
    http://www.filecondo.com/dl.php?f=i5f4cd1Qm9G4

    Here.We.Meet.Again.2023.S01E10.1080p.WeTV.WEB-DL.DDP2.0.x264_SkiesIT.mkv
    http://www.filecondo.com/dl.php?f=af68451Qm9F7

    Here.We.Meet.Again.2023.S01E09.1080p.WeTV.WEB-DL.DDP2.0.x264_SkiesIT.mkv
    http://www.filecondo.com/dl.php?f=We11eb1Qm9E8

    Here.We.Meet.Again.2023.S01E08.1080p.WeTV.WEB-DL.DDP2.0.x264_SkiesIT.mkv
    http://www.filecondo.com/dl.php?f=zf48181Qm9Db

    Here.We.Meet.Again.2023.S01E07.1080p.WeTV.WEB-DL.DDP2.0.x264_SkiesIT.mkv
    http://www.filecondo.com/dl.php?f=m7810f1Qm9Cd

    Here.We.Meet.Again.2023.S01E06.1080p.WeTV.WEB-DL.DDP2.0.x264_SkiesIT.mkv
    http://www.filecondo.com/dl.php?f=f2e38d1Qm9Bd

    Here.We.Meet.Again.2023.S01E06.1080p.WeTV.WEB-DL.DDP2.0.x264_SkiesIT.rar
    http://www.filecondo.com/dl.php?f=0369de1QmKAM

    Here.We.Meet.Again.2023.S01E05.1080p.WeTV.WEB-DL.DDP2.0.x264_SkiesIT.mkv
    http://www.filecondo.com/dl.php?f=fa74791Qm9Ag

    Here.We.Meet.Again.2023.S01E04.1080p.WeTV.WEB-DL.DDP2.0.x264_SkiesIT.mkv
    http://www.filecondo.com/dl.php?f=M90e421Qm9zi

    Here.We.Meet.Again.2023.S01E03.1080p.WeTV.WEB-DL.DDP2.0.x264_SkiesIT.mkv
    http://www.filecondo.com/dl.php?f=Y844371Qm9yl

    Here.We.Meet.Again.2023.S01E02.1080p.WeTV.WEB-DL.DDP2.0.x264_SkiesIT.mkv
    http://www.filecondo.com/dl.php?f=Bd598f1Qm9xm

    Here.We.Meet.Again.2023.S01E01.1080p.WeTV.WEB-DL.DDP2.0.x264_SkiesIT.mkv
    http://www.filecondo.com/dl.php?f=qc30f21Qm9wp

  2. The Following User Says Thank You to Duckload.us For This Useful Post:

    F2UMaH6398 (09-28-2023)

+ ตอบกลับกระทู้

ข้อมูลกระทู้

Users Browsing this Thread

ในขณะนี้มี 1 ท่านดูกระทู้อยู่. (0 สมาชิกและ 1 ผู้เยี่ยมชม)

     

กฎการโพสต์ข้อความ

  • ท่าน ไม่สามารถ ตั้งกระทู้ใหม่ได้
  • ท่าน ไม่สามารถ ตอบกระทู้ได้
  • ท่าน ไม่สามารถ แนบไฟล์ได้
  • ท่าน ไม่สามารถ แก้ไขข้อความโพสต์ได้
  • BB code สถานะ เปิด
  • Smilies สถานะ เปิด
  • [IMG] สถานะ เปิด
  • HTML สถานะ ปิด