+ ตอบกลับกระทู้
สรุปผลการค้นหา 1 ถึง 3 จากทั้งหมด 3
  1. #1
    Administrators รูปส่วนตัว Duckload.us
    สมัครเมื่อ
    Dec 2010
    โพสต์
    152,320
    Thanks
    7
    Thanked 159,227 Times in 69,658 Posts

    Lightbulb [จีน]-[* TrueID *] Exploration Method of Love (2023) : สำรวจใจไขรหัสรัก | Complete Season 1 [เสียงไทย + เสียงจีน] [บรรยายไทย + จีน] [เสียงไทย + ซับไทย From TrueID + ซับ SRT , PGS]-WEB-DL.H.264.1080p.




    เล่าเรื่องราวดร.สาว ซูจี่ฉือ ได้รับข้อความจากน้องสาวฝาแฝดซูจิ๋นชิง ดาราสาวชื่อดัง ตัดพ้อเรื่องงานและอยากพักผ่อนโดยหายตัวไปทำให้ผู้จั ดการของเธอต้องมาขอร้องให้พี่สาวอย่างเธอปลอมตัวเป็น น้องสาวเพื่อรักษางานไม่ให้ผิดสัญญา เธอต้องมารับมือกับการทำงานด้านวงการบันเทิงยังไม่พอ ต้องมาต่อกรกับ มู่ซิ่วหลุน แฟนหนุ่มของน้องสาวผู้ซึ่งเป็นประธานหนุ่มที่เป็นแฟน ในนามตามสัญญา เขานั้นฉลาดจ้องจะจับผิดเธออยู่ตลอด เรื่องวุ่นๆจะลงตัวยังไงติดตามได้ใน Exploration Method of Love (2023) สำรวจใจไขรหัสรัก

    Video
    ID : 1
    Format : AVC
    Format/Info : Advanced Video Codec
    Format profile : High@L5
    Format settings : CABAC / 5 Ref Frames
    Format settings, CABAC : Yes
    Format settings, Reference frames : 5 frames
    Codec ID : V_MPEG4/ISO/AVC
    Duration : 45 min 46 s
    Bit rate : 4 200 kb/s
    Width : 1 920 pixels
    Height : 1 080 pixels
    Display aspect ratio : 16:9
    Frame rate mode : Constant
    Frame rate : 25.000 FPS
    Color space : YUV
    Chroma subsampling : 4:2:0
    Bit depth : 8 bits
    Scan type : Progressive
    Bits/(Pixel*Frame) : 0.081
    Stream size : 1.34 GiB (88%)
    Title : Exploration.Method.of.Love.2023.S01E01.1080p.TrueI D.WEB-DL.DDP2.0.x264_SkiesIT
    Writing library : x264 core 157
    Encoding settings : cabac=1 / ref=5 / deblock=1:0:0 / analyse=0x3:0x113 / me=hex / subme=8 / psy=1 / psy_rd=1.00:0.00 / mixed_ref=1 / me_range=16 / chroma_me=1 / trellis=2 / 8x8dct=1 / cqm=0 / deadzone=21,11 / fast_pskip=1 / chroma_qp_offset=-2 / threads=9 / lookahead_threads=1 / sliced_threads=0 / nr=0 / decimate=1 / interlaced=0 / bluray_compat=0 / constrained_intra=0 / bframes=3 / b_pyramid=2 / b_adapt=1 / b_bias=0 / direct=3 / weightb=1 / open_gop=0 / weightp=2 / keyint=250 / keyint_min=25 / scenecut=40 / intra_refresh=0 / rc_lookahead=50 / rc=2pass / mbtree=1 / bitrate=4200 / ratetol=1.0 / qcomp=0.60 / qpmin=0 / qpmax=69 / qpstep=4 / cplxblur=20.0 / qblur=0.5 / ip_ratio=1.40 / aq=1:1.00
    Language : Chinese
    Default : Yes
    Forced : No
    Color range : Limited
    Color primaries : BT.709
    Transfer characteristics : BT.709
    Matrix coefficients : BT.709

    Audio #1
    ID : 2
    Format : E-AC-3
    Format/Info : Enhanced AC-3
    Commercial name : Dolby Digital Plus
    Codec ID : A_EAC3
    Duration : 45 min 46 s
    Bit rate mode : Constant
    Bit rate : 192 kb/s
    Channel(s) : 2 channels
    Channel layout : L R
    Sampling rate : 48.0 kHz
    Frame rate : 31.250 FPS (1536 SPF)
    Compression mode : Lossy
    Delay relative to video : -40 ms
    Stream size : 62.9 MiB (4%)
    Language : Thai
    Service kind : Complete Main
    Default : Yes
    Forced : No

    Audio #2
    ID : 3
    Format : E-AC-3
    Format/Info : Enhanced AC-3
    Commercial name : Dolby Digital Plus
    Codec ID : A_EAC3
    Duration : 45 min 46 s
    Bit rate mode : Constant
    Bit rate : 192 kb/s
    Channel(s) : 2 channels
    Channel layout : L R
    Sampling rate : 48.0 kHz
    Frame rate : 31.250 FPS (1536 SPF)
    Compression mode : Lossy
    Delay relative to video : -40 ms
    Stream size : 62.9 MiB (4%)
    Language : Chinese
    Service kind : Complete Main
    Default : No
    Forced : No

    Text #1
    ID : 4
    Format : UTF-8
    Codec ID : S_TEXT/UTF8
    Codec ID/Info : UTF-8 Plain Text
    Duration : 40 min 44 s
    Bit rate : 59 b/s
    Frame rate : 0.444 FPS
    Count of elements : 1085
    Stream size : 17.6 KiB (0%)
    Title : Simplified
    Language : Chinese (Simplified)
    Default : No
    Forced : No

    Text #2
    ID : 5
    Format : UTF-8
    Codec ID : S_TEXT/UTF8
    Codec ID/Info : UTF-8 Plain Text
    Duration : 40 min 44 s
    Bit rate : 59 b/s
    Frame rate : 0.444 FPS
    Count of elements : 1085
    Stream size : 17.6 KiB (0%)
    Title : Traditional
    Language : Chinese (Traditional)
    Default : No
    Forced : No

    Text #3
    ID : 6
    Format : UTF-8
    Codec ID : S_TEXT/UTF8
    Codec ID/Info : UTF-8 Plain Text
    Duration : 45 min 16 s
    Bit rate : 282 b/s
    Frame rate : 0.473 FPS
    Count of elements : 1286
    Stream size : 93.6 KiB (0%)
    Title : SRT From TrueID
    Language : Thai
    Default : Yes
    Forced : No

    Text #4
    ID : 7
    Format : PGS
    Muxing mode : zlib
    Codec ID : S_HDMV/PGS
    Codec ID/Info : Picture based subtitle format used on BDs/HD-DVDs
    Duration : 45 min 16 s
    Bit rate : 64.4 kb/s
    Frame rate : 0.660 FPS
    Count of elements : 1794
    Stream size : 20.8 MiB (1%)
    Title : Angsana PGS
    Language : Thai
    Default : No
    Forced : No

    Text #5
    ID : 8
    Format : PGS
    Muxing mode : zlib
    Codec ID : S_HDMV/PGS
    Codec ID/Info : Picture based subtitle format used on BDs/HD-DVDs
    Duration : 45 min 16 s
    Bit rate : 64.4 kb/s
    Frame rate : 0.660 FPS
    Count of elements : 1794
    Stream size : 20.8 MiB (1%)
    Title : Angsana PGS [Yellow]
    Language : Thai
    Default : No
    Forced : No

    Text #6
    ID : 9
    Format : PGS
    Muxing mode : zlib
    Codec ID : S_HDMV/PGS
    Codec ID/Info : Picture based subtitle format used on BDs/HD-DVDs
    Duration : 45 min 16 s
    Bit rate : 60.9 kb/s
    Frame rate : 0.660 FPS
    Count of elements : 1794
    Stream size : 19.7 MiB (1%)
    Title : Cordia New PGS
    Language : Thai
    Default : No
    Forced : No

    Text #7
    ID : 10
    Format : PGS
    Muxing mode : zlib
    Codec ID : S_HDMV/PGS
    Codec ID/Info : Picture based subtitle format used on BDs/HD-DVDs
    Duration : 45 min 16 s
    Bit rate : 60.9 kb/s
    Frame rate : 0.660 FPS
    Count of elements : 1794
    Stream size : 19.7 MiB (1%)
    Title : Cordia New PGS [Yellow]
    Language : Thai
    Default : No
    Forced : No

    Text #8
    ID : 11
    Format : PGS
    Muxing mode : zlib
    Codec ID : S_HDMV/PGS
    Codec ID/Info : Picture based subtitle format used on BDs/HD-DVDs
    Duration : 45 min 16 s
    Bit rate : 60.1 kb/s
    Frame rate : 0.660 FPS
    Count of elements : 1794
    Stream size : 19.5 MiB (1%)
    Title : Droid Sans PGS
    Language : Thai
    Default : No
    Forced : No

    Text #9
    ID : 12
    Format : PGS
    Muxing mode : zlib
    Codec ID : S_HDMV/PGS
    Codec ID/Info : Picture based subtitle format used on BDs/HD-DVDs
    Duration : 45 min 16 s
    Bit rate : 60.1 kb/s
    Frame rate : 0.660 FPS
    Count of elements : 1794
    Stream size : 19.5 MiB (1%)
    Title : Droid Sans PGS [Yellow]
    Language : Thai
    Default : No
    Forced : No












    Exploration.Method.of.Love.2023.S01E22.1080p.TrueI D.WEB-DL.DDP2.0.x264_SkiesIT.mkv
    http://www.filecondo.com/dl.php?f=e9da641QqTVX

    Exploration.Method.of.Love.2023.S01E21.1080p.TrueI D.WEB-DL.DDP2.0.x264_SkiesIT.mkv
    http://www.filecondo.com/dl.php?f=qd5abf1QqTV0

    Exploration.Method.of.Love.2023.S01E20.1080p.TrueI D.WEB-DL.DDP2.0.x264_SkiesIT.mkv
    http://www.filecondo.com/dl.php?f=Uf9d361QqTU2

    Exploration.Method.of.Love.2023.S01E19.1080p.TrueI D.WEB-DL.DDP2.0.x264_SkiesIT.mkv
    http://www.filecondo.com/dl.php?f=Af51571QqTT3

    Exploration.Method.of.Love.2023.S01E18.1080p.TrueI D.WEB-DL.DDP2.0.x264_SkiesIT.mkv
    http://www.filecondo.com/dl.php?f=lbd8f71QqTS6

    Exploration.Method.of.Love.2023.S01E17.1080p.TrueI D.WEB-DL.DDP2.0.x264_SkiesIT.mkv
    http://www.filecondo.com/dl.php?f=ade2441QqTR8

    Exploration.Method.of.Love.2023.S01E16.1080p.TrueI D.WEB-DL.DDP2.0.x264_SkiesIT.mkv
    http://www.filecondo.com/dl.php?f=da87c51QqTQa

    Exploration.Method.of.Love.2023.S01E15.1080p.TrueI D.WEB-DL.DDP2.0.x264_SkiesIT.mkv
    http://www.filecondo.com/dl.php?f=d0ba9a1QqTPc

    Exploration.Method.of.Love.2023.S01E14.1080p.TrueI D.WEB-DL.DDP2.0.x264_SkiesIT.mkv
    http://www.filecondo.com/dl.php?f=r293ea1QqTOe

    Exploration.Method.of.Love.2023.S01E13.1080p.TrueI D.WEB-DL.DDP2.0.x264_SkiesIT.mkv
    http://www.filecondo.com/dl.php?f=Oca5431QqTNf

    Exploration.Method.of.Love.2023.S01E12.1080p.TrueI D.WEB-DL.DDP2.0.x264_SkiesIT.mkv
    http://www.filecondo.com/dl.php?f=Ea3f721QqTMi

    Exploration.Method.of.Love.2023.S01E11.1080p.TrueI D.WEB-DL.DDP2.0.x264_SkiesIT.mkv
    http://www.filecondo.com/dl.php?f=k376261QqTLk

    Exploration.Method.of.Love.2023.S01E10.1080p.TrueI D.WEB-DL.DDP2.0.x264_SkiesIT.mkv
    http://www.filecondo.com/dl.php?f=hfaab01QqTKm

    Exploration.Method.of.Love.2023.S01E09.1080p.TrueI D.WEB-DL.DDP2.0.x264_SkiesIT.mkv
    http://www.filecondo.com/dl.php?f=aab3da1QqTJn

    Exploration.Method.of.Love.2023.S01E08.1080p.TrueI D.WEB-DL.DDP2.0.x264_SkiesIT.mkv
    http://www.filecondo.com/dl.php?f=u99a541QqTIp

    Exploration.Method.of.Love.2023.S01E07.1080p.TrueI D.WEB-DL.DDP2.0.x264_SkiesIT.mkv
    http://www.filecondo.com/dl.php?f=Pa1b741QqTHr

    Exploration.Method.of.Love.2023.S01E06.1080p.TrueI D.WEB-DL.DDP2.0.x264_SkiesIT.mkv
    http://www.filecondo.com/dl.php?f=u01ecd1QqTGu

    Exploration.Method.of.Love.2023.S01E05.1080p.TrueI D.WEB-DL.DDP2.0.x264_SkiesIT.mkv
    http://www.filecondo.com/dl.php?f=X9297e1QqTFw

    Exploration.Method.of.Love.2023.S01E04.1080p.TrueI D.WEB-DL.DDP2.0.x264_SkiesIT.mkv
    http://www.filecondo.com/dl.php?f=893dfc1QqTEy

    Exploration.Method.of.Love.2023.S01E03.1080p.TrueI D.WEB-DL.DDP2.0.x264_SkiesIT.mkv
    http://www.filecondo.com/dl.php?f=g56b4e1QqTDA

    Exploration.Method.of.Love.2023.S01E02.1080p.TrueI D.WEB-DL.DDP2.0.x264_SkiesIT.mkv
    http://www.filecondo.com/dl.php?f=he0a1d1QqTCC

    Exploration.Method.of.Love.2023.S01E01.1080p.TrueI D.WEB-DL.DDP2.0.x264_SkiesIT.mkv
    http://www.filecondo.com/dl.php?f=n17b251QqTBE

  2. The Following User Says Thank You to Duckload.us For This Useful Post:

    F2UMaH6398 (08-23-2023)

  3. #2
    Junior Member รูปส่วนตัว sontiya1982
    สมัครเมื่อ
    Dec 2018
    โพสต์
    7
    Thanks
    0
    Thanked 0 Times in 0 Posts
    โหลดไม่ขึ้นเลยค่ะ

  4. #3
    Senior Member
    สมัครเมื่อ
    Aug 2012
    โพสต์
    595
    Thanks
    0
    Thanked 0 Times in 0 Posts
    ขอบคุณมากครับ รบกวนตอนที่ 5 9 และ 21 ด้วยครับ โหลดไม่ได้ครับ

+ ตอบกลับกระทู้

ข้อมูลกระทู้

Users Browsing this Thread

ในขณะนี้มี 1 ท่านดูกระทู้อยู่. (0 สมาชิกและ 1 ผู้เยี่ยมชม)

     

กฎการโพสต์ข้อความ

  • ท่าน ไม่สามารถ ตั้งกระทู้ใหม่ได้
  • ท่าน ไม่สามารถ ตอบกระทู้ได้
  • ท่าน ไม่สามารถ แนบไฟล์ได้
  • ท่าน ไม่สามารถ แก้ไขข้อความโพสต์ได้
  • BB code สถานะ เปิด
  • Smilies สถานะ เปิด
  • [IMG] สถานะ เปิด
  • HTML สถานะ ปิด