+ ตอบกลับกระทู้
สรุปผลการค้นหา 1 ถึง 2 จากทั้งหมด 2
  1. #1
    Administrators รูปส่วนตัว Duckload.us
    สมัครเมื่อ
    Dec 2010
    โพสต์
    150,776
    Thanks
    7
    Thanked 158,041 Times in 69,006 Posts

    Lightbulb [จีน]-[IQIYI]ไฟผลาญจันทร์ - And the winner is love 2020 [EP1-48 FULL]-WEB-DL.H.265.1080p. [Hi-def rip from Master]-[Soundtrack บรรยายไทย]



    เป็นเรื่องราวความรักระหว่าง ซ่างกวนโท่ว เจ้าหุบเขาจันทรา และ ฉงเสวี่ยจือ เจ้าตำหนักน้อยแห่งตำหนักเพลิงอัคคี เธอเป็นทายาทของอดีตจอมมารตำหนักเพลิงอัคคี ฉงเย่ พวกเขาทั้งสองร่วมมือกันออกตามหาคัมภีร์ของอดีตจอมมา รฉงเย่ที่หายไป โดยคัมภีร์นี้ฉงเย่ได้ใช้เวลาทั้งชีวิตคิดค้นวิชาเทพ ปีกสัตตบงกชขึ้นมา ฤทธานุภาพของมันร้ายกาจมิอาจมีผู้ใดต้านได้ เป็นเหตุให้ฉงเย่เสียสติฆ่าคนบริสุทธิ์ไปมากและตัวเข าเองก็ต้องจบชีวิตลงเช่นกัน ยุทธภพต่างก็หวาดหวั่นอานุภาพของมันจึงแบ่งคัมภีร์แย กกันเก็บรักษาโดยยังคงเก็บเล่มหนึ่งไว้ที่ตำหนักเพลิ งอัคคี มีนามว่าหัวใจพระสูตรพุดตาน และแยกเล่มที่ 2 มีนามว่าเทพปัทมาเก้ากระบวน ไปเก็บไว้ที่หุบเขากระบี่วิญญาณ ต่อมา 5 ปีให้หลังมีการจัดงานชุมนุมชาวยุทธเพื่อแย่งชิงสิทธิ ์การเก็บรักษาคัมภีร์ แต่แล้วเหตุไม่คาดฝันก็เกิดขึ้นเมื่อคัมภีร์เล่มที่ 2 ได้หายไป เป็นเหตุให้ช่างกวนโท่วและฉงเสวี่ยจือต้องออกตามหา พวกเขาจะหาคัมภีร์ที่หายไปพบหรือไม่ และสุดท้ายเรื่องราวความรักของทั้งสองจะจบลงอย่างไร







    File size : 1.40 GiB
    Duration : 42 min 37 s
    Overall bit rate : 4 716 kb/s
    Frame rate : 24.000 FPS

    Video
    ID : 1
    Format : HEVC
    Format/Info : High Efficiency Video Coding
    Format profile : Main@L4@High
    Codec ID : V_MPEGH/ISO/HEVC
    Duration : 42 min 37 s
    Bit rate : 4 587 kb/s
    Width : 1 920 pixels
    Height : 1 080 pixels
    Display aspect ratio : 16:9
    Frame rate mode : Constant
    Frame rate : 24.000 FPS
    Color space : YUV
    Chroma subsampling : 4:2:0
    Bit depth : 8 bits
    Bits/(Pixel*Frame) : 0.092
    Stream size : 1.37 GiB (97%)
    Default : Yes
    Forced : No

    Audio
    ID : 2
    Format : AAC LC
    Format/Info : Advanced Audio Codec Low Complexity
    Codec ID : A_AAC-2
    Duration : 42 min 37 s
    Bit rate : 125 kb/s
    Channel(s) : 2 channels
    Channel layout : L R
    Sampling rate : 44.1 kHz
    Frame rate : 43.066 FPS (1024 SPF)
    Compression mode : Lossy
    Stream size : 38.0 MiB (3%)
    Title : Mandarin
    Language : Chinese
    Default : Yes
    Forced : No

    Text #1
    ID : 3
    Format : UTF-8
    Codec ID : S_TEXT/UTF8
    Codec ID/Info : UTF-8 Plain Text
    Duration : 39 min 40 s
    Bit rate : 83 b/s
    Frame rate : 0.260 FPS
    Count of elements : 620
    Stream size : 24.1 KiB (0%)
    Language : Arabic
    Default : No
    Forced : No

    Text #2
    ID : 4
    Format : UTF-8
    Codec ID : S_TEXT/UTF8
    Codec ID/Info : UTF-8 Plain Text
    Duration : 39 min 40 s
    Bit rate : 69 b/s
    Frame rate : 0.260 FPS
    Count of elements : 620
    Stream size : 20.2 KiB (0%)
    Language : Indonesian
    Default : No
    Forced : No

    Text #3
    ID : 5
    Format : UTF-8
    Codec ID : S_TEXT/UTF8
    Codec ID/Info : UTF-8 Plain Text
    Duration : 39 min 40 s
    Bit rate : 69 b/s
    Frame rate : 0.260 FPS
    Count of elements : 620
    Stream size : 20.1 KiB (0%)
    Language : Malay
    Default : No
    Forced : No

    Text #4
    ID : 6
    Format : UTF-8
    Codec ID : S_TEXT/UTF8
    Codec ID/Info : UTF-8 Plain Text
    Duration : 39 min 40 s
    Bit rate : 48 b/s
    Frame rate : 0.260 FPS
    Count of elements : 620
    Stream size : 14.0 KiB (0%)
    Language : English
    Default : No
    Forced : No

    Text #5
    ID : 7
    Format : UTF-8
    Codec ID : S_TEXT/UTF8
    Codec ID/Info : UTF-8 Plain Text
    Duration : 39 min 40 s
    Bit rate : 58 b/s
    Frame rate : 0.262 FPS
    Count of elements : 623
    Stream size : 16.9 KiB (0%)
    Language : Korean
    Default : No
    Forced : No

    Text #6
    ID : 8
    Format : UTF-8
    Codec ID : S_TEXT/UTF8
    Codec ID/Info : UTF-8 Plain Text
    Duration : 37 min 43 s
    Bit rate : 45 b/s
    Frame rate : 0.273 FPS
    Count of elements : 619
    Stream size : 12.5 KiB (0%)
    Title : Simplified
    Language : Chinese
    Default : No
    Forced : No

    Text #7
    ID : 9
    Format : UTF-8
    Codec ID : S_TEXT/UTF8
    Codec ID/Info : UTF-8 Plain Text
    Duration : 39 min 40 s
    Bit rate : 61 b/s
    Frame rate : 0.260 FPS
    Count of elements : 620
    Stream size : 17.9 KiB (0%)
    Language : Spanish
    Default : No
    Forced : No

    Text #8
    ID : 10
    Format : UTF-8
    Codec ID : S_TEXT/UTF8
    Codec ID/Info : UTF-8 Plain Text
    Duration : 39 min 40 s
    Bit rate : 157 b/s
    Frame rate : 0.260 FPS
    Count of elements : 620
    Stream size : 45.6 KiB (0%)
    Language : Thai
    Default : No
    Forced : No

    Text #9
    ID : 11
    Format : UTF-8
    Codec ID : S_TEXT/UTF8
    Codec ID/Info : UTF-8 Plain Text
    Duration : 37 min 43 s
    Bit rate : 45 b/s
    Frame rate : 0.273 FPS
    Count of elements : 619
    Stream size : 12.5 KiB (0%)
    Title : Traditional
    Language : Chinese
    Default : No
    Forced : No

    Text #10
    ID : 12
    Format : UTF-8
    Codec ID : S_TEXT/UTF8
    Codec ID/Info : UTF-8 Plain Text
    Duration : 39 min 40 s
    Bit rate : 79 b/s
    Frame rate : 0.261 FPS
    Count of elements : 621
    Stream size : 23.1 KiB (0%)
    Language : Vietnamese
    Default : Yes
    Forced : No


    And.the.Winner.Is.Love.S01E48.1080p.IQ.WEB-DL.AAC2.0.H.265-MIKOTO.mkv
    http://www.filecondo.com/dl.php?f=e4ec4b1QqS5M

    And.the.Winner.Is.Love.S01E47.1080p.IQ.WEB-DL.AAC2.0.H.265-MIKOTO.mkv
    http://www.filecondo.com/dl.php?f=dd2aed1QqS4O

    And.the.Winner.Is.Love.S01E46.1080p.IQ.WEB-DL.AAC2.0.H.265-MIKOTO.mkv
    http://www.filecondo.com/dl.php?f=P1eb811QqS3Q

    And.the.Winner.Is.Love.S01E45.1080p.IQ.WEB-DL.AAC2.0.H.265-MIKOTO.mkv
    http://www.filecondo.com/dl.php?f=vfc50a1QqS2S

    And.the.Winner.Is.Love.S01E44.1080p.IQ.WEB-DL.AAC2.0.H.265-MIKOTO.mkv
    http://www.filecondo.com/dl.php?f=j8b6041QqS1S

    And.the.Winner.Is.Love.S01E43.1080p.IQ.WEB-DL.AAC2.0.H.265-MIKOTO.mkv
    http://www.filecondo.com/dl.php?f=T6a4fe1QqS0W

    And.the.Winner.Is.Love.S01E42.1080p.IQ.WEB-DL.AAC2.0.H.265-MIKOTO.mkv
    http://www.filecondo.com/dl.php?f=E744c91QqRZX

    And.the.Winner.Is.Love.S01E41.1080p.IQ.WEB-DL.AAC2.0.H.265-MIKOTO.mkv
    http://www.filecondo.com/dl.php?f=bef57c1QqRZ0

    And.the.Winner.Is.Love.S01E40.1080p.IQ.WEB-DL.AAC2.0.H.265-MIKOTO.mkv
    http://www.filecondo.com/dl.php?f=dba2461QqRY1

    And.the.Winner.Is.Love.S01E39.1080p.IQ.WEB-DL.AAC2.0.H.265-MIKOTO.mkv
    http://www.filecondo.com/dl.php?f=C1481d1QqRX4

    And.the.Winner.Is.Love.S01E38.1080p.IQ.WEB-DL.AAC2.0.H.265-MIKOTO.mkv
    http://www.filecondo.com/dl.php?f=e400161QqRW5

    And.the.Winner.Is.Love.S01E37.1080p.IQ.WEB-DL.AAC2.0.H.265-MIKOTO.mkv
    http://www.filecondo.com/dl.php?f=r905711QqRV8

    And.the.Winner.Is.Love.S01E36.1080p.IQ.WEB-DL.AAC2.0.H.265-MIKOTO.mkv
    http://www.filecondo.com/dl.php?f=X147191QqRUa

    And.the.Winner.Is.Love.S01E35.1080p.IQ.WEB-DL.AAC2.0.H.265-MIKOTO.mkv
    http://www.filecondo.com/dl.php?f=q3becb1QqRTc

    And.the.Winner.Is.Love.S01E34.1080p.IQ.WEB-DL.AAC2.0.H.265-MIKOTO.mkv
    http://www.filecondo.com/dl.php?f=0b00a11QqRSe

    And.the.Winner.Is.Love.S01E33.1080p.IQ.WEB-DL.AAC2.0.H.265-MIKOTO.mkv
    http://www.filecondo.com/dl.php?f=xaaed61QqRRg

    And.the.Winner.Is.Love.S01E32.1080p.IQ.WEB-DL.AAC2.0.H.265-MIKOTO.mkv
    http://www.filecondo.com/dl.php?f=Z354851QqRQi

    And.the.Winner.Is.Love.S01E31.1080p.IQ.WEB-DL.AAC2.0.H.265-MIKOTO.mkv
    http://www.filecondo.com/dl.php?f=q6f9951QqRPi

    And.the.Winner.Is.Love.S01E30.1080p.IQ.WEB-DL.AAC2.0.H.265-MIKOTO.mkv
    http://www.filecondo.com/dl.php?f=Tbd1cf1QqROj

    And.the.Winner.Is.Love.S01E29.1080p.IQ.WEB-DL.AAC2.0.H.265-MIKOTO.mkv
    http://www.filecondo.com/dl.php?f=m6ed241QqRNn

    And.the.Winner.Is.Love.S01E28.1080p.IQ.WEB-DL.AAC2.0.H.265-MIKOTO.mkv
    http://www.filecondo.com/dl.php?f=o586191QqRMq

    And.the.Winner.Is.Love.S01E27.1080p.IQ.WEB-DL.AAC2.0.H.265-MIKOTO.mkv
    http://www.filecondo.com/dl.php?f=Ea77141QqRLs

    And.the.Winner.Is.Love.S01E25.1080p.IQ.WEB-DL.AAC2.0.H.265-MIKOTO.mkv
    http://www.filecondo.com/dl.php?f=e8147a1QqRJw

    And.the.Winner.Is.Love.S01E24.1080p.IQ.WEB-DL.AAC2.0.H.265-MIKOTO.mkv
    http://www.filecondo.com/dl.php?f=S1d4f11QqRIx

    And.the.Winner.Is.Love.S01E23.1080p.IQ.WEB-DL.AAC2.0.H.265-MIKOTO.mkv
    http://www.filecondo.com/dl.php?f=Y152511QqRHA

    And.the.Winner.Is.Love.S01E22.1080p.IQ.WEB-DL.AAC2.0.H.265-MIKOTO.mkv
    http://www.filecondo.com/dl.php?f=ze42d31QqRGC

    And.the.Winner.Is.Love.S01E21.1080p.IQ.WEB-DL.AAC2.0.H.265-MIKOTO.mkv
    http://www.filecondo.com/dl.php?f=g201a81QqRFE

    And.the.Winner.Is.Love.S01E20.1080p.IQ.WEB-DL.AAC2.0.H.265-MIKOTO.mkv
    http://www.filecondo.com/dl.php?f=50adab1QqREG

    And.the.Winner.Is.Love.S01E19.1080p.IQ.WEB-DL.AAC2.0.H.265-MIKOTO.mkv
    http://www.filecondo.com/dl.php?f=ya2a571QqRDJ

    And.the.Winner.Is.Love.S01E18.1080p.IQ.WEB-DL.AAC2.0.H.265-MIKOTO.mkv
    http://www.filecondo.com/dl.php?f=P53a2e1QqRCI

    And.the.Winner.Is.Love.S01E17.1080p.IQ.WEB-DL.AAC2.0.H.265-MIKOTO.mkv
    http://www.filecondo.com/dl.php?f=k9618d1QqRBK

    And.the.Winner.Is.Love.S01E16.1080p.IQ.WEB-DL.AAC2.0.H.265-MIKOTO.mkv
    http://www.filecondo.com/dl.php?f=R4a9cf1QqRAO

    And.the.Winner.Is.Love.S01E15.1080p.IQ.WEB-DL.AAC2.0.H.265-MIKOTO.mkv
    http://www.filecondo.com/dl.php?f=H7e52a1QqRzP

    And.the.Winner.Is.Love.S01E14.1080p.IQ.WEB-DL.AAC2.0.H.265-MIKOTO.mkv
    http://www.filecondo.com/dl.php?f=O9857a1QqRyT

    And.the.Winner.Is.Love.S01E13.1080p.IQ.WEB-DL.AAC2.0.H.265-MIKOTO.mkv
    http://www.filecondo.com/dl.php?f=tb9cdc1QqRxU

    And.the.Winner.Is.Love.S01E12.1080p.IQ.WEB-DL.AAC2.0.H.265-MIKOTO.mkv
    http://www.filecondo.com/dl.php?f=va37ab1QqRwV

    And.the.Winner.Is.Love.S01E11.1080p.IQ.WEB-DL.AAC2.0.H.265-MIKOTO.mkv
    http://www.filecondo.com/dl.php?f=e89f2f1QqRvY

    And.the.Winner.Is.Love.S01E10.1080p.IQ.WEB-DL.AAC2.0.H.265-MIKOTO.mkv
    http://www.filecondo.com/dl.php?f=B070241QqRuZ

    And.the.Winner.Is.Love.S01E09.1080p.IQ.WEB-DL.AAC2.0.H.265-MIKOTO.mkv
    http://www.filecondo.com/dl.php?f=t5fa911QqRu2

    And.the.Winner.Is.Love.S01E08.1080p.IQ.WEB-DL.AAC2.0.H.265-MIKOTO.mkv
    http://www.filecondo.com/dl.php?f=ke0bcf1QqRt4

    And.the.Winner.Is.Love.S01E07.1080p.IQ.WEB-DL.AAC2.0.H.265-MIKOTO.mkv
    http://www.filecondo.com/dl.php?f=P4f7311QqRs6

    And.the.Winner.Is.Love.S01E06.1080p.IQ.WEB-DL.AAC2.0.H.265-MIKOTO.mkv
    http://www.filecondo.com/dl.php?f=Ae21b71QqRr9

    And.the.Winner.Is.Love.S01E05.1080p.IQ.WEB-DL.AAC2.0.H.265-MIKOTO.mkv
    http://www.filecondo.com/dl.php?f=m752101QqRqb

    And.the.Winner.Is.Love.S01E04.1080p.IQ.WEB-DL.AAC2.0.H.265-MIKOTO.mkv
    http://www.filecondo.com/dl.php?f=c23d1c1QqRpe

    And.the.Winner.Is.Love.S01E03.1080p.IQ.WEB-DL.AAC2.0.H.265-MIKOTO.mkv
    http://www.filecondo.com/dl.php?f=Bc5cc01QqRof

    And.the.Winner.Is.Love.S01E02.1080p.IQ.WEB-DL.AAC2.0.H.265-MIKOTO.mkv
    http://www.filecondo.com/dl.php?f=735d281QqRng

    And.the.Winner.Is.Love.S01E01.1080p.IQ.WEB-DL.AAC2.0.H.265-MIKOTO.mkv
    http://www.filecondo.com/dl.php?f=i5d29a1QqRmi

  2. #2
    Junior Member
    สมัครเมื่อ
    Jul 2015
    ที่อยู่
    bangkok
    โพสต์
    6
    Thanks
    1,813
    Thanked 0 Times in 0 Posts
    And.the.Winner.Is.Love.S01E26 ตอนที่ 26 ไม่มีครับ

+ ตอบกลับกระทู้

ข้อมูลกระทู้

Users Browsing this Thread

ในขณะนี้มี 1 ท่านดูกระทู้อยู่. (0 สมาชิกและ 1 ผู้เยี่ยมชม)

     

กฎการโพสต์ข้อความ

  • ท่าน ไม่สามารถ ตั้งกระทู้ใหม่ได้
  • ท่าน ไม่สามารถ ตอบกระทู้ได้
  • ท่าน ไม่สามารถ แนบไฟล์ได้
  • ท่าน ไม่สามารถ แก้ไขข้อความโพสต์ได้
  • BB code สถานะ เปิด
  • Smilies สถานะ เปิด
  • [IMG] สถานะ เปิด
  • HTML สถานะ ปิด