+ ตอบกลับกระทู้
สรุปผลการค้นหา 1 ถึง 3 จากทั้งหมด 3
  1. #1
    Administrators รูปส่วนตัว Duckload.us
    สมัครเมื่อ
    Dec 2010
    โพสต์
    146,397
    Thanks
    7
    Thanked 153,457 Times in 66,845 Posts

    Exclamation [ญี่ปุ่น]Ninja vs Shark (2023) นินจา ปะทะ ฉลาม (Sound:Thai Rong)



    ในสมัยเอโดะ ศพของชาวบ้านที่ถูกฆ่าถูกพบบนชายหาดของหมู่บ้าน โอคิตสึ ที่อยู่ห่างไกล เพื่อให้ได้พลังแห่งความเป็นอมตะ โทกาเมะ ชิโระ (ยูอิจิ นากามูระ) หัวหน้าลัทธิโคมาชูผู้ชั่วร้ายจึงใช้เวทมนตร์ควบคุมฉ ลามเพื่อขโมยไข่มุกจากชาวบ้าน ด้วยความเลวร้ายของสถานการณ์ หัวหน้าหมู่บ้านไปพบ โคทาโร่ ชิโอซากิ (โคชู ฮิราโนะ) ผู้คุ้มกันวัดในเขตชานเมืองของหมู่บ้านเพื่อขอความช่ วยเหลือ โคทาโร่รับงานพร้อมรางวัล แต่เส้นทางของเขาถูกขัดขวางโดยนินจาหญิงชื่อคิคุมะ (คาน่อน มิยาฮาระ) นอกจากนี้เขายังต้องเผชิญหน้ากับฉลามขนาดมหึมาที่ดูเ หมือนไม่ได้มาจากโลกนี้...

    Format : Matroska

    Format version : Version 4

    File size : 4.78 GiB

    Duration : 1 h 16 min

    Overall bit rate : 8 963 kb/s

    Frame rate : 23.976 FPS

    Movie name : Ninja vs Shark (2023) Thr_©GOLD CUP™_WWW.TT-TORRENT.COM

    Video

    ID : 1

    Format : AVC

    Format/Info : Advanced Video Codec

    Format profile : Main@L4

    Format settings : CABAC / 1 Ref Frames

    Format settings, CABAC : Yes

    Format settings, Reference : 1 frame

    Format settings, GOP : M=1, N=25

    Codec ID : V_MPEG4/ISO/AVC

    Duration : 1 h 16 min

    Bit rate mode : Constant

    Bit rate : 8 767 kb/s

    Width : 1 920 pixels

    Height : 1 080 pixels

    Display aspect ratio : 16:9

    Frame rate mode : Constant

    Frame rate : 23.976 (24000/1001) FPS

    Color space : YUV

    Chroma subsampling : 4:2:0

    Bit depth : 8 bits

    Scan type : Progressive

    Bits/(Pixel*Frame) : 0.176

    Stream size : 4.68 GiB (98%)

    Title : Ninja vs Shark (2023) Thr_©GOLD CUP™

    Language : Thai

    Default : Yes

    Forced : No

    Audio

    ID : 2

    Format : AAC LC

    Format/Info : Advanced Audio Codec Low Complexity

    Codec ID : A_AAC-2

    Duration : 1 h 16 min

    Bit rate : 192 kb/s

    Channel(s) : 2 channels

    Channel layout : L R

    Sampling rate : 44.1 kHz

    Frame rate : 43.066 FPS (1024 SPF)

    Compression mode : Lossy

    Stream size : 106 MiB (2%)

    Title : Thr.AAC.2.0_192 kbs

    Language : Thai

    Default : Yes

    Forced : No






    Download:filecondo
    http://www.filecondo.com/dl.php?f=g52c991QDRgU

    Download:037file
    https://037file.com/sbzyq8h7v2iw

  2. The Following User Says Thank You to Duckload.us For This Useful Post:

    Wesker_TOT (09-07-2023)

  3. #2
    Senior Member
    สมัครเมื่อ
    Dec 2013
    โพสต์
    5,427
    Thanks
    7,411
    Thanked 0 Times in 0 Posts
    ขอบคุณครับ...

  4. #3
    Administrators รูปส่วนตัว Duckload.us
    สมัครเมื่อ
    Dec 2010
    โพสต์
    146,397
    Thanks
    7
    Thanked 153,457 Times in 66,845 Posts
    Pass : แก้ไขแล้วครับ

+ ตอบกลับกระทู้

ข้อมูลกระทู้

Users Browsing this Thread

ในขณะนี้มี 1 ท่านดูกระทู้อยู่. (0 สมาชิกและ 1 ผู้เยี่ยมชม)

     

กฎการโพสต์ข้อความ

  • ท่าน ไม่สามารถ ตั้งกระทู้ใหม่ได้
  • ท่าน ไม่สามารถ ตอบกระทู้ได้
  • ท่าน ไม่สามารถ แนบไฟล์ได้
  • ท่าน ไม่สามารถ แก้ไขข้อความโพสต์ได้
  • BB code สถานะ เปิด
  • Smilies สถานะ เปิด
  • [IMG] สถานะ เปิด
  • HTML สถานะ ปิด