+ ตอบกลับกระทู้
สรุปผลการค้นหา 1 ถึง 4 จากทั้งหมด 4
  1. #1
    Administrators รูปส่วนตัว Duckload.us
    สมัครเมื่อ
    Dec 2010
    โพสต์
    151,817
    Thanks
    7
    Thanked 158,780 Times in 69,420 Posts

    Exclamation [จีน]The Magic Lotus Lantern (2021) ตำนานรักโคมสวรรค์ (Sound:Thai Master)[SUB:อังกฤษ]



    การบอกเล่าเรื่องของตะเกียงเป่าเหลียนที่คอยปกป้องโล กอยู่ตลอดแต่กลับถูกขโมยไป ทำให้ หยาง เจียน ต้องเข้าไปสู่โลกมนุษย์เพื่อที่จะค้นหาแสงสว่างแต่กล ับไปตกหลุมรักกับนมนุษย์คนหนึ่ง และทั้งสองจึงร่วมมือกันต่อสู้กับปีศาจแห่งความวุ่นว ายที่มันพยายามจะล้มล้างอาณาจักรทั้ง 6 และจนในที่สุดก็สามารถปกป้องการทำลายตะเกียงเป่าเหลี ยนได้

    Format : Matroska

    Format version : Version 4

    File size : 3.01 GiB

    Duration : 1 h 12 min

    Overall bit rate : 5 968 kb/s

    Frame rate : 23.976 FPS

    Movie name : The Magic Lotus Lantern (2021)_©GOLD CUP™_WWW.TT-TORRENT.COM

    Video

    ID : 1

    Format : AVC

    Format/Info : Advanced Video Codec

    Format profile : Main@L4

    Format settings : CABAC / 1 Ref Frames

    Format settings, CABAC : Yes

    Format settings, Reference : 1 frame

    Format settings, GOP : M=1, N=25

    Codec ID : V_MPEG4/ISO/AVC

    Duration : 1 h 12 min

    Bit rate mode : Constant

    Bit rate : 5 767 kb/s

    Width : 1 920 pixels

    Height : 1 080 pixels

    Display aspect ratio : 16:9

    Frame rate mode : Constant

    Frame rate : 23.976 (24000/1001) FPS

    Color space : YUV

    Chroma subsampling : 4:2:0

    Bit depth : 8 bits

    Scan type : Progressive

    Bits/(Pixel*Frame) : 0.116

    Stream size : 2.91 GiB (97%)

    Title : The Magic Lotus Lantern (2021)_©GOLD CUP™

    Language : Thai

    Default : Yes

    Forced : No

    Audio

    ID : 2

    Format : AAC LC

    Format/Info : Advanced Audio Codec Low Complexity

    Codec ID : A_AAC-2

    Duration : 1 h 12 min

    Bit rate : 177 kb/s

    Channel(s) : 2 channels

    Channel layout : L R

    Sampling rate : 44.1 kHz

    Frame rate : 43.066 FPS (1024 SPF)

    Compression mode : Lossy

    Stream size : 91.6 MiB (3%)

    Title : Th.AAC.2.0_192 kbs

    Language : Thai

    Default : Yes

    Forced : No

    Text

    ID : 3

    Format : PGS

    Muxing mode : zlib

    Codec ID : S_HDMV/PGS

    Codec ID/Info : Picture based subtitle format used on BDs/HD-DVDs

    Duration : 1 h 9 min

    Bit rate : 43.0 kb/s

    Frame rate : 0.490 FPS

    Count of elements : 2052

    Stream size : 21.5 MiB (1%)

    Title : EN.130.3.100.Yellow

    Language : English

    Default : Yes

    Forced : No





    Download:filecondo
    http://www.filecondo.com/dl.php?f=vde9221QDRcX

    Download:037file
    https://037file.com/au52vq7emoj4

  2. The Following 4 Users Say Thank You to Duckload.us For This Useful Post:

    Jodz14 (09-08-2023), Nam1499 (03-05-2024), noi54 (09-08-2023), sawara (03-07-2024)

  3. #2
    Administrators รูปส่วนตัว Duckload.us
    สมัครเมื่อ
    Dec 2010
    โพสต์
    151,817
    Thanks
    7
    Thanked 158,780 Times in 69,420 Posts
    Pass : แก้ไขแล้วครับ

  4. #3
    Senior Member
    สมัครเมื่อ
    Feb 2024
    โพสต์
    342
    Thanks
    310
    Thanked 0 Times in 0 Posts
    ข อ บ คุ ณ ม า ก ค่ ะ

  5. #4
    Senior Member
    สมัครเมื่อ
    Dec 2013
    โพสต์
    1,067
    Thanks
    1,031
    Thanked 0 Times in 0 Posts
    ขอบคุณครับบ

+ ตอบกลับกระทู้

ข้อมูลกระทู้

Users Browsing this Thread

ในขณะนี้มี 1 ท่านดูกระทู้อยู่. (0 สมาชิกและ 1 ผู้เยี่ยมชม)

     

กฎการโพสต์ข้อความ

  • ท่าน ไม่สามารถ ตั้งกระทู้ใหม่ได้
  • ท่าน ไม่สามารถ ตอบกระทู้ได้
  • ท่าน ไม่สามารถ แนบไฟล์ได้
  • ท่าน ไม่สามารถ แก้ไขข้อความโพสต์ได้
  • BB code สถานะ เปิด
  • Smilies สถานะ เปิด
  • [IMG] สถานะ เปิด
  • HTML สถานะ ปิด