+ ตอบกลับกระทู้
สรุปผลการค้นหา 1 ถึง 6 จากทั้งหมด 6
  1. #1
    Administrators รูปส่วนตัว Duckload.us
    สมัครเมื่อ
    Dec 2010
    โพสต์
    151,817
    Thanks
    7
    Thanked 158,780 Times in 69,420 Posts

    Exclamation [ฝรั่ง]The Power (2021) ไฟดับ จับผี (Sound:Eng/Thai Master)[SUB:อังกฤษ/ไทย]



    เรื่องราวของ “วัล” (โรส วิลเลียมส์) นางพยาบาลฝึกหัดที่ต้องจำใจยอมเข้าเวรกะดึกในวันเดีย วกับที่สหภาพคนงานเหมืองประกาศหยุดงานประท้วง เป็นเหตุให้ไฟฟ้าดับทั่วเกาะอังกฤษ เมื่อเจ้าหน้าที่และผู้ป่วยทุกคนอพยพไปที่โรงพยาบาลอ ื่นกันเกือบหมด เธอจึงต้องเผชิญกับความมืดน่าหวาดผวาภายในโรงพยาบาลท ี่ได้ชื่อว่า “สถานที่แห่งความตาย” เธอต้องประคองสติและรับมือกับอำจาจชั่วร้ายเพื่อให้ผ ่านพ้นคืนนี้ไปให้ได้…

    Format : Matroska

    Format version : Version 4

    File size : 4.35 GiB

    Duration : 1 h 32 min

    Overall bit rate : 6 698 kb/s

    Frame rate : 23.976 FPS

    Movie name : The Power (2021)_©GOLD CUP™_WWW.TT-TORRENT.COM

    Video #1

    ID : 1

    Format : AVC

    Format/Info : Advanced Video Codec

    Format profile : Main@L4

    Format settings : CABAC / 1 Ref Frames

    Format settings, CABAC : Yes

    Format settings, Reference : 1 frame

    Format settings, GOP : M=1, N=25

    Codec ID : V_MPEG4/ISO/AVC

    Duration : 1 h 32 min

    Bit rate mode : Constant

    Bit rate : 3 053 kb/s

    Width : 1 920 pixels

    Height : 804 pixels

    Display aspect ratio : 2.40:1

    Frame rate mode : Constant

    Frame rate : 23.976 (24000/1001) FPS

    Color space : YUV

    Chroma subsampling : 4:2:0

    Bit depth : 8 bits

    Scan type : Progressive

    Bits/(Pixel*Frame) : 0.082

    Stream size : 1.98 GiB (46%)

    Title : The Power (2021)_©GOLD CUP™

    Language : Thai

    Default : Yes

    Forced : No

    Video #2

    ID : 2

    Format : AVC

    Format/Info : Advanced Video Codec

    Format profile : Main@L4

    Format settings : CABAC / 1 Ref Frames

    Format settings, CABAC : Yes

    Format settings, Reference : 1 frame

    Format settings, GOP : M=1, N=25

    Codec ID : V_MPEG4/ISO/AVC

    Duration : 1 h 32 min

    Bit rate mode : Constant

    Bit rate : 3 053 kb/s

    Width : 1 920 pixels

    Height : 804 pixels

    Display aspect ratio : 2.40:1

    Frame rate mode : Constant

    Frame rate : 23.976 (24000/1001) FPS

    Color space : YUV

    Chroma subsampling : 4:2:0

    Bit depth : 8 bits

    Scan type : Progressive

    Bits/(Pixel*Frame) : 0.082

    Stream size : 1.98 GiB (46%)

    Title : The Power (2021)_©GOLD CUP™

    Language : English

    Default : Yes

    Forced : No

    Audio #1

    ID : 3

    Format : AAC LC

    Format/Info : Advanced Audio Codec Low Complexity

    Codec ID : A_AAC-2

    Duration : 1 h 32 min

    Bit rate : 192 kb/s

    Channel(s) : 2 channels

    Channel layout : L R

    Sampling rate : 44.1 kHz

    Frame rate : 43.066 FPS (1024 SPF)

    Compression mode : Lossy

    Stream size : 130 MiB (3%)

    Title : Th.AAC.2.0_192 kbs

    Language : Thai

    Default : Yes

    Forced : No

    Audio #2

    ID : 4

    Format : AAC LC

    Format/Info : Advanced Audio Codec Low Complexity

    Codec ID : A_AAC-2

    Duration : 1 h 32 min

    Bit rate : 384 kb/s

    Channel(s) : 6 channels

    Channel layout : C L R Ls Rs LFE

    Sampling rate : 48.0 kHz

    Frame rate : 46.875 FPS (1024 SPF)

    Compression mode : Lossy

    Stream size : 255 MiB (6%)

    Title : En.AAC_384 kbs.6 / channels

    Language : English

    Default : Yes

    Forced : No

    Text

    ID : 5

    Format : PGS

    Muxing mode : zlib

    Codec ID : S_HDMV/PGS

    Codec ID/Info : Picture based subtitle format used on BDs/HD-DVDs

    Duration : 1 h 25 min

    Bit rate : 26.2 kb/s

    Frame rate : 0.290 FPS

    Count of elements : 1496

    Stream size : 16.1 MiB (0%)

    Title : EN.130.3.100.Yellow

    Language : English

    Default : Yes

    Forced : No





    Download:filecondo
    http://www.filecondo.com/dl.php?f=jbd67b1QDR5g

    Download:037file
    https://037file.com/t8h5dorvp7dv

  2. The Following 5 Users Say Thank You to Duckload.us For This Useful Post:

    Jodz14 (09-08-2023), Nam1499 (03-05-2024), noi54 (09-08-2023), petpina2010 (09-07-2023), sawara (09-09-2023)

  3. #2
    Senior Member
    สมัครเมื่อ
    Jul 2012
    โพสต์
    8,660
    Thanks
    0
    Thanked 0 Times in 0 Posts
    ขอบคุณมากจ้า

  4. #3

  5. #4
    Senior Member
    สมัครเมื่อ
    Dec 2013
    โพสต์
    1,067
    Thanks
    1,031
    Thanked 0 Times in 0 Posts
    ขอบคุณครับบ

  6. #5
    Senior Member
    สมัครเมื่อ
    Jul 2013
    โพสต์
    3,665
    Thanks
    0
    Thanked 0 Times in 0 Posts
    ขอบคุณครับผม

  7. #6
    Senior Member
    สมัครเมื่อ
    Feb 2024
    โพสต์
    342
    Thanks
    310
    Thanked 0 Times in 0 Posts
    ข อ บ คุ ณ ม า ก ค่ ะ

+ ตอบกลับกระทู้

ข้อมูลกระทู้

Users Browsing this Thread

ในขณะนี้มี 1 ท่านดูกระทู้อยู่. (0 สมาชิกและ 1 ผู้เยี่ยมชม)

     

กฎการโพสต์ข้อความ

  • ท่าน ไม่สามารถ ตั้งกระทู้ใหม่ได้
  • ท่าน ไม่สามารถ ตอบกระทู้ได้
  • ท่าน ไม่สามารถ แนบไฟล์ได้
  • ท่าน ไม่สามารถ แก้ไขข้อความโพสต์ได้
  • BB code สถานะ เปิด
  • Smilies สถานะ เปิด
  • [IMG] สถานะ เปิด
  • HTML สถานะ ปิด