+ ตอบกลับกระทู้
สรุปผลการค้นหา 1 ถึง 1 จากทั้งหมด 1
  1. #1
    Administrators รูปส่วนตัว Duckload.us
    สมัครเมื่อ
    Dec 2010
    โพสต์
    152,251
    Thanks
    7
    Thanked 159,160 Times in 69,626 Posts

    Exclamation [ฝรั่ง][HDTS] Blue Beetle (2023) บลู บีเทิล (Sound All Rong:Eng/Spa/Thai)[SUB:อังกฤษ/ไทย:Ma00]



    ‘Blue Beetle – บลู บีเทิล’ เล่าเรื่องของ ไฮเม่ เรเยส (รับบทโดย โซโล มาริดูเอญญา – Xolo Mariduena) หนุ่มมหาวิทยาลัยจบใหม่ไฟแรง แต่เมื่อเขากลับบ้านก็ต้องพบว่าที่ผ่านมาครอบครัวมีป ัญหาทางการเงินขั้นรุนแรงแถมพ่อยังป่วยอีกต่างหาก ไฮเม่จึงต้องดิ้นรนหางานทำเพื่อช่วยเหลือครอบครัว จนได้พบกับ เจนนิเฟอร์ คอร์ด (รับบทโดย บรูน่า มาร์เกอซีน – Bruna Marquezine) หญิงสาวทายาทผู้บริหารบริษัทคอร์ด อินดัสตรีเธอสัญญาจะมอบงานให้เขาทำตอบแทนที่ไฮเม่โดน ไล่ออกเพราะเข้ามาช่วยเธอจาก วิกตอเรีย คอร์ด (รับบทโดย ซูซาน ซาแรนดอน – Susan Sarandon) ผู้เป็นป้าและผู้บริหารบริษัทคนปัจจุบัน และนี่ก็คือจุดเริ่มต้นที่ทำให้ชีวิตของไฮเม่เปลี่ยน ไป เพราะเขาได้พบกับ “สการับ” ด้วงสีน้ำเงิน มันเลือกเขาเป็นร่างโฮสต์และเปลี่ยนเขาให้กลายเป็น “บลู บีเทิล”

    Format : Matroska

    Format version : Version 4

    File size : 6.09 GiB

    Duration : 2 h 7 min

    Overall bit rate : 6 836 kb/s

    Frame rate : 24.000 FPS

    Movie name : Blue.Beetle.2023.1080P.H264.Thr_©GOLD CUP™_WWW.TT-TORRENT.COM

    Video

    ID : 1

    Format : AVC

    Format/Info : Advanced Video Codec

    Format profile : Main@L4

    Format settings : CABAC / 1 Ref Frames

    Format settings, CABAC : Yes

    Format settings, Reference : 1 frame

    Format settings, GOP : M=1, N=25

    Codec ID : V_MPEG4/ISO/AVC

    Duration : 2 h 1 min

    Bit rate mode : Constant

    Bit rate : 6 562 kb/s

    Width : 1 900 pixels

    Height : 800 pixels

    Display aspect ratio : 2.40:1

    Frame rate mode : Constant

    Frame rate : 24.000 FPS

    Color space : YUV

    Chroma subsampling : 4:2:0

    Bit depth : 8 bits

    Scan type : Progressive

    Bits/(Pixel*Frame) : 0.180

    Stream size : 5.56 GiB (91%)

    Title : Blue.Beetle.2023.1080P.H264.Thr_©GOLD CUP™

    Language : Thai

    Default : Yes

    Forced : No

    Audio #1

    ID : 2

    Format : AC-3

    Format/Info : Audio Coding 3

    Commercial name : Dolby Digital

    Codec ID : A_AC3

    Duration : 2 h 1 min

    Bit rate mode : Constant

    Bit rate : 192 kb/s

    Channel(s) : 2 channels

    Channel layout : L R

    Sampling rate : 48.0 kHz

    Frame rate : 31.250 FPS (1536 SPF)

    Compression mode : Lossy

    Stream size : 167 MiB (3%)

    Title : Thr.2.0.AC3.192k

    Language : Thai

    Service kind : Complete Main

    Default : Yes

    Forced : No

    Audio #2

    ID : 3

    Format : AAC LC

    Format/Info : Advanced Audio Codec Low Complexity

    Codec ID : A_AAC-2

    Duration : 2 h 1 min

    Bit rate : 192 kb/s

    Channel(s) : 2 channels

    Channel layout : L R

    Sampling rate : 44.1 kHz

    Frame rate : 43.066 FPS (1024 SPF)

    Compression mode : Lossy

    Stream size : 167 MiB (3%)

    Title : En.AAC.2.0_192 kbs

    Language : English

    Default : Yes

    Forced : No

    Audio #3

    ID : 4

    Format : AAC LC

    Format/Info : Advanced Audio Codec Low Complexity

    Codec ID : A_AAC-2

    Duration : 2 h 1 min

    Bit rate : 192 kb/s

    Channel(s) : 2 channels

    Channel layout : L R

    Sampling rate : 48.0 kHz

    Frame rate : 46.875 FPS (1024 SPF)

    Compression mode : Lossy

    Delay relative to video : 2 ms

    Stream size : 167 MiB (3%)

    Title : Spa.AAC.2.0_192 kbs

    Language : Spanish

    Default : Yes

    Forced : No

    Text #1

    ID : 5

    Format : PGS

    Muxing mode : zlib

    Codec ID : S_HDMV/PGS

    Codec ID/Info : Picture based subtitle format used on BDs/HD-DVDs

    Duration : 2 h 6 min

    Bit rate : 42.1 kb/s

    Frame rate : 0.466 FPS

    Count of elements : 3532

    Stream size : 38.1 MiB (1%)

    Title : EN.130.3.100.Yellow

    Language : English

    Default : Yes

    Forced : No

    Text #2

    ID : 6

    Format : PGS

    Muxing mode : zlib

    Codec ID : S_HDMV/PGS

    Codec ID/Info : Picture based subtitle format used on BDs/HD-DVDs

    Duration : 1 h 58 min

    Bit rate : 42.3 kb/s

    Frame rate : 0.430 FPS

    Count of elements : 3062

    Stream size : 35.9 MiB (1%)

    Title : Th.3.110.95.White.1080p

    Language : Thai

    Default : Yes

    Forced : No





    Download:filecondo
    http://www.filecondo.com/dl.php?f=qdbba31QFynN

    Download:037file
    https://037file.com/ndl6wixrlqtj

  2. The Following User Says Thank You to Duckload.us For This Useful Post:

    Jodz14 (09-14-2023)

+ ตอบกลับกระทู้

ข้อมูลกระทู้

Users Browsing this Thread

ในขณะนี้มี 1 ท่านดูกระทู้อยู่. (0 สมาชิกและ 1 ผู้เยี่ยมชม)

     

กฎการโพสต์ข้อความ

  • ท่าน ไม่สามารถ ตั้งกระทู้ใหม่ได้
  • ท่าน ไม่สามารถ ตอบกระทู้ได้
  • ท่าน ไม่สามารถ แนบไฟล์ได้
  • ท่าน ไม่สามารถ แก้ไขข้อความโพสต์ได้
  • BB code สถานะ เปิด
  • Smilies สถานะ เปิด
  • [IMG] สถานะ เปิด
  • HTML สถานะ ปิด