+ ตอบกลับกระทู้
สรุปผลการค้นหา 1 ถึง 4 จากทั้งหมด 4
  1. #1
    Administrators รูปส่วนตัว Duckload.us
    สมัครเมื่อ
    Dec 2010
    โพสต์
    152,110
    Thanks
    7
    Thanked 159,085 Times in 69,585 Posts

    Exclamation [เกาหลี][AMZN] The Ghost Station (2023) อ๊กซู สถานีผีดุ [พากย์:ไทย 5.1+เกาหลี5.1][SUB:ไทย/อังกฤษ][1080i/p] [EAC-3][H264/H265][ซับไทย AMZN PGS+Vobsub+SRT]



    นายองเป็นนักข่าวสาวที่กำลังต้องการหาข่าวเด็ด สกู๊ปของเพื่อนอย่างอูวอนทำให้เธอได้รู้เกี่ยวกับการ ตายต่อเนื่องที่สถานีรถไฟใต้ดินอ๊กซู เธอเริ่มเขียนบทความโดยมีเขาคอยช่วยเหลือ แล้วเหตุการณ์ประหลาดๆ ก็เริ่มเกิดขึ้นกับเธอ...

    ผู้กำกับ
    จองยงกี
    ผู้อำนวยการสร้าง
    ยูจางฮุน
    แสดงโดย
    คิมโบรา, คิมแจฮยอน, ชินโซยูล


    Format : Matroska
    Format version : Version 4
    File size : 3.49 GiB
    Duration : 1 h 20 min
    Overall bit rate : 6 215 kb/s
    Movie name : The.Ghost.Station.2023.1080p.AMZN.APP-DL.DDP5.1.H264@Argon
    Encoded date : UTC 2023-09-14 12:34:56
    Writing application : mkvmerge v74.0.0 ('You Oughta Know') 64-bit
    Writing library : libebml v1.4.4 + libmatroska v1.7.1
    Cover : Yes
    Attachments : cover.png

    Video
    ID : 1
    Format : AVC
    Format/Info : Advanced Video Codec
    Format profile : High@L4
    Format settings : CABAC / 4 Ref Frames
    Format settings, CABAC : Yes
    Format settings, Reference fra : 4 frames
    Codec ID : V_MPEG4/ISO/AVC
    Duration : 1 h 20 min
    Bit rate : 4 912 kb/s
    Width : 1 920 pixels
    Height : 800 pixels
    Display aspect ratio : 2.40:1
    Frame rate mode : Constant
    Frame rate : 24.000 FPS
    Color space : YUV
    Chroma subsampling : 4:2:0
    Bit depth : 8 bits
    Scan type : Progressive
    Bits/(Pixel*Frame) : 0.133
    Stream size : 2.76 GiB (79%)
    Title : The.Ghost.Station.2023.1080p.AMZN.APP-DL.DDP5.1.H264@Argon
    Default : Yes
    Forced : No
    Color range : Limited
    Color primaries : BT.709
    Transfer characteristics : BT.709
    Matrix coefficients : BT.709

    Audio #1
    ID : 2
    Format : E-AC-3
    Format/Info : Enhanced AC-3
    Commercial name : Dolby Digital Plus
    Codec ID : A_EAC3
    Duration : 1 h 20 min
    Bit rate mode : Constant
    Bit rate : 640 kb/s
    Channel(s) : 6 channels
    Channel layout : L R C LFE Ls Rs
    Sampling rate : 48.0 kHz
    Frame rate : 31.250 FPS (1536 SPF)
    Compression mode : Lossy
    Stream size : 368 MiB (10%)
    Language : Thai
    Service kind : Complete Main
    Default : Yes
    Forced : Yes

    Audio #2
    ID : 3
    Format : E-AC-3
    Format/Info : Enhanced AC-3
    Commercial name : Dolby Digital Plus
    Codec ID : A_EAC3
    Duration : 1 h 20 min
    Bit rate mode : Constant
    Bit rate : 640 kb/s
    Channel(s) : 6 channels
    Channel layout : L R C LFE Ls Rs
    Sampling rate : 48.0 kHz
    Frame rate : 31.250 FPS (1536 SPF)
    Compression mode : Lossy
    Stream size : 368 MiB (10%)
    Language : Korean
    Service kind : Complete Main
    Default : Yes
    Forced : No

    Text #1
    ID : 4
    Format : PGS
    Muxing mode : zlib
    Codec ID : S_HDMV/PGS
    Codec ID/Info : Picture based subtitle format used on BDs/HD-DVDs
    Duration : 1 h 15 min
    Bit rate : 1 980 b/s
    Frame rate : 0.021 FPS
    Count of elements : 96
    Stream size : 1.07 MiB (0%)
    Title : (FORCED)
    Language : Thai (TH)
    Default : Yes
    Forced : Yes

    Text #2
    ID : 5
    Format : VobSub
    Muxing mode : zlib
    Codec ID : S_VOBSUB
    Codec ID/Info : Picture based subtitle format used on DVDs
    Duration : 1 h 15 min
    Bit rate : 486 b/s
    Frame rate : 0.011 FPS
    Count of elements : 48
    Stream size : 268 KiB (0%)
    Title : (FORCED)
    Language : Thai
    Default : Yes
    Forced : No

    Text #3
    ID : 6
    Format : PGS
    Muxing mode : zlib
    Codec ID : S_HDMV/PGS
    Codec ID/Info : Picture based subtitle format used on BDs/HD-DVDs
    Duration : 1 h 15 min
    Bit rate : 33.1 kb/s
    Frame rate : 0.372 FPS
    Count of elements : 1678
    Stream size : 17.8 MiB (0%)
    Language : Thai (TH)
    Default : Yes
    Forced : No

    Text #4
    ID : 7
    Format : VobSub
    Muxing mode : zlib
    Codec ID : S_VOBSUB
    Codec ID/Info : Picture based subtitle format used on DVDs
    Duration : 1 h 15 min
    Bit rate : 8 042 b/s
    Frame rate : 0.185 FPS
    Count of elements : 837
    Stream size : 4.33 MiB (0%)
    Language : Thai
    Default : Yes
    Forced : No

    Text #5
    ID : 8
    Format : UTF-8
    Codec ID : S_TEXT/UTF8
    Codec ID/Info : UTF-8 Plain Text
    Duration : 1 h 15 min
    Bit rate : 6 b/s
    Frame rate : 0.011 FPS
    Count of elements : 48
    Stream size : 3.51 KiB (0%)
    Title : (FORCED)
    Language : Thai (TH)
    Default : Yes
    Forced : No

    Text #6
    ID : 9
    Format : UTF-8
    Codec ID : S_TEXT/UTF8
    Codec ID/Info : UTF-8 Plain Text
    Duration : 1 h 15 min
    Bit rate : 113 b/s
    Frame rate : 0.186 FPS
    Count of elements : 839
    Stream size : 62.4 KiB (0%)
    Language : Thai (TH)
    Default : Yes
    Forced : No

    Text #7
    ID : 10
    Format : UTF-8
    Codec ID : S_TEXT/UTF8
    Codec ID/Info : UTF-8 Plain Text
    Duration : 1 h 15 min
    Bit rate : 42 b/s
    Frame rate : 0.191 FPS
    Count of elements : 860
    Stream size : 23.2 KiB (0%)
    Language : English (US)
    Default : Yes
    Forced : No











    Download:filecondo
    The.Ghost.Station.2023.1080p.AMZN.APP-DL.DDP5.1.HEVC.H265.mkv
    http://www.filecondo.com/dl.php?f=3c8e331QHrzm

    The.Ghost.Station.2023.1080p.AMZN.APP-DL.DDP5.1.H264.mkv
    http://www.filecondo.com/dl.php?f=r63a141QHrys

    Download:037file
    The.Ghost.Station.2023.1080p.AMZN.APP-DL.DDP5.1.H264.mkv - 3.5 GB
    The.Ghost.Station.2023.1080p.AMZN.APP-DL.DDP5.1.HEVC.H265.mkv - 2.1 GB

  2. The Following 6 Users Say Thank You to Duckload.us For This Useful Post:

    Filepre (09-21-2023), Jodz14 (09-18-2023), noi54 (09-17-2023), sawara (09-17-2023), Tellmon (09-20-2023), Wesker_TOT (09-17-2023)

  3. #2
    Senior Member
    สมัครเมื่อ
    Jul 2012
    โพสต์
    8,660
    Thanks
    0
    Thanked 0 Times in 0 Posts
    ขอบคุณมากจ้า

  4. #3
    Senior Member
    สมัครเมื่อ
    Dec 2013
    โพสต์
    6,282
    Thanks
    8,265
    Thanked 0 Times in 0 Posts
    ขอบคุณครับ...

  5. #4
    Senior Member
    สมัครเมื่อ
    Dec 2013
    โพสต์
    1,075
    Thanks
    1,038
    Thanked 0 Times in 0 Posts
    ขอบคุณครับบ

+ ตอบกลับกระทู้

ข้อมูลกระทู้

Users Browsing this Thread

ในขณะนี้มี 1 ท่านดูกระทู้อยู่. (0 สมาชิกและ 1 ผู้เยี่ยมชม)

     

กฎการโพสต์ข้อความ

  • ท่าน ไม่สามารถ ตั้งกระทู้ใหม่ได้
  • ท่าน ไม่สามารถ ตอบกระทู้ได้
  • ท่าน ไม่สามารถ แนบไฟล์ได้
  • ท่าน ไม่สามารถ แก้ไขข้อความโพสต์ได้
  • BB code สถานะ เปิด
  • Smilies สถานะ เปิด
  • [IMG] สถานะ เปิด
  • HTML สถานะ ปิด