+ ͺѺз
ػšä 1 ֧ 4 ҡ 4
  1. #1
    Administrators ٻǹ Duckload.us
    Ѥ
    Dec 2010
    ʵ
    146,397
    Thanks
    7
    Thanked 153,463 Times in 66,848 Posts

    Exclamation []-[Netflix] Once Upon a Crime (2023) Ť˹觡Ѻջȹ-WEB-DL.H.264.1080p. [Netflix (web-dl)]-[ҡ/ 5.1 ]



    㹴Թᴹ෾شȨ 觤դس˹ͷء ѺԴ˵ئҵѧ¨ ҹ㹻ҷͧЧѡҧ

    Video
    ID : 1
    Format : AVC
    Format/Info : Advanced Video Codec
    Format profile : High@L4
    Format settings : CABAC / 4 Ref Frames
    Format settings, CABAC : Yes
    Format settings, Reference frames : 4 frames
    Codec ID : V_MPEG4/ISO/AVC
    Duration : 1 h 47 min
    Bit rate mode : Variable
    Bit rate : 5 913 kb/s
    Maximum bit rate : 20.0 Mb/s
    Width : 1 920 pixels
    Height : 1 080 pixels
    Display aspect ratio : 16:9
    Frame rate mode : Constant
    Frame rate : 23.976 (24000/1001) FPS
    Color space : YUV
    Chroma subsampling : 4:2:0
    Bit depth : 8 bits
    Scan type : Progressive
    Bits/(Pixel*Frame) : 0.119
    Stream size : 4.42 GiB (82%)
    Writing library : x264 core 148 r2727 7d026e8
    Encoding settings : cabac=1 / ref=4 / deblock=1:0:0 / analyse=0x3:0x111 / me=umh / subme=10 / psy=1 / psy_rd=1.00:0.00 / mixed_ref=1 / me_range=120 / chroma_me=1 / trellis=2 / 8x8dct=1 / cqm=0 / deadzone=21,11 / fast_pskip=1 / chroma_qp_offset=-2 / threads=6 / lookahead_threads=1 / sliced_threads=0 / nr=0 / decimate=1 / interlaced=0 / bluray_compat=0 / stitchable=1 / constrained_intra=0 / bframes=16 / b_pyramid=2 / b_adapt=2 / b_bias=0 / direct=3 / weightb=1 / open_gop=0 / weightp=2 / keyint=240 / keyint_min=121 / scenecut=0 / intra_refresh=0 / rc_lookahead=240 / rc=crf / mbtree=1 / crf=16.0 / qcomp=0.50 / qpmin=6 / qpmax=51 / qpstep=4 / vbv_maxrate=20000 / vbv_bufsize=25000 / crf_max=0.0 / nal_hrd=vbr / filler=0 / ip_ratio=1.40 / aq=1:0.80
    Default : Yes
    Forced : No

    Audio #1
    ID : 2
    Format : E-AC-3
    Format/Info : Enhanced AC-3
    Commercial name : Dolby Digital Plus
    Codec ID : A_EAC3
    Duration : 1 h 47 min
    Bit rate mode : Constant
    Bit rate : 640 kb/s
    Channel(s) : 6 channels
    Channel layout : L R C LFE Ls Rs
    Sampling rate : 48.0 kHz
    Frame rate : 31.250 FPS (1536 SPF)
    Compression mode : Lossy
    Stream size : 490 MiB (9%)
    Language : Japanese
    Service kind : Complete Main
    Default : Yes
    Forced : No

    Audio #2
    ID : 3
    Format : E-AC-3
    Format/Info : Enhanced AC-3
    Commercial name : Dolby Digital Plus
    Codec ID : A_EAC3
    Duration : 1 h 47 min
    Bit rate mode : Constant
    Bit rate : 640 kb/s
    Channel(s) : 6 channels
    Channel layout : L R C LFE Ls Rs
    Sampling rate : 48.0 kHz
    Frame rate : 31.250 FPS (1536 SPF)
    Compression mode : Lossy
    Stream size : 490 MiB (9%)
    Language : Thai
    Service kind : Complete Main
    Default : No
    Forced : No

    Text #1
    ID : 4
    Format : UTF-8
    Codec ID : S_TEXT/UTF8
    Codec ID/Info : UTF-8 Plain Text
    Duration : 1 h 39 min
    Bit rate : 0 b/s
    Frame rate : 0.001 FPS
    Count of elements : 5
    Stream size : 408 Bytes (0%)
    Title : Forced
    Language : Thai
    Default : No
    Forced : Yes

    Text #2
    ID : 5
    Format : UTF-8
    Codec ID : S_TEXT/UTF8
    Codec ID/Info : UTF-8 Plain Text
    Duration : 1 h 45 min
    Bit rate : 120 b/s
    Frame rate : 0.202 FPS
    Count of elements : 1271
    Stream size : 92.7 KiB (0%)
    Language : Thai
    Default : No
    Forced : No

    Text #3
    ID : 6
    Format : UTF-8
    Codec ID : S_TEXT/UTF8
    Codec ID/Info : UTF-8 Plain Text
    Duration : 1 h 44 min
    Bit rate : 48 b/s
    Frame rate : 0.202 FPS
    Count of elements : 1262
    Stream size : 37.0 KiB (0%)
    Language : English
    Default : No
    Forced : No

    Text #4
    ID : 7
    Format : UTF-8
    Codec ID : S_TEXT/UTF8
    Codec ID/Info : UTF-8 Plain Text
    Duration : 1 h 40 min
    Bit rate : 65 b/s
    Frame rate : 0.236 FPS
    Count of elements : 1428
    Stream size : 48.6 KiB (0%)
    Language : English
    Default : No
    Forced : No

    Text #5
    ID : 8
    Format : UTF-8
    Codec ID : S_TEXT/UTF8
    Codec ID/Info : UTF-8 Plain Text
    Duration : 1 h 40 min
    Bit rate : 73 b/s
    Frame rate : 0.271 FPS
    Count of elements : 1638
    Stream size : 54.2 KiB (0%)
    Title : SDH
    Language : English
    Default : No
    Forced : No

    Menu
    00:00:00.000 : en:Part 01
    01:41:22.450 : en:Credits





    Download:filecondo
    Once.Upon.a.Crime.2023.1080p.NF.WEB-DL.DDP5.1.H.264-MESSI.mkv
    http://www.filecondo.com/dl.php?f=J4d7a31QHrvE

    Once_Upon_a_Crime_(2023)_Ť˹觡Ѻջȹ .ts
    http://www.filecondo.com/dl.php?f=w1b0cd1QHruu

    Download:037file
    Once Upon a Crime (2023).ts - 1.5 GB
    Once.Upon.a.Crime.2023.1080p.NF.WEB-DL.DDP5.1.H.264-MESSI.mkv - 5.4 GB

  2. The Following 3 Users Say Thank You to Duckload.us For This Useful Post:

    Jodz14 (09-18-2023), noi54 (09-17-2023), Wesker_TOT (09-17-2023)

  3. #2
    Senior Member
    Ѥ
    Jul 2013
    ʵ
    3,519
    Thanks
    0
    Thanked 0 Times in 0 Posts
    ͺäѺ

  4. #3
    Senior Member
    Ѥ
    Jul 2012
    ʵ
    8,415
    Thanks
    0
    Thanked 0 Times in 0 Posts
    ͺسҡ

  5. #4
    Senior Member
    Ѥ
    Dec 2013
    ʵ
    5,427
    Thanks
    7,411
    Thanked 0 Times in 0 Posts
    ͺسѺ...

šз

Users Browsing this Thread

㹢й 1 ҹ١з. (0 Ҫԡ 1 )

     

ʵͤ

  • ҹ ö 駡з
  • ҹ ö ͺз
  • ҹ ö
  • ҹ ö 䢢ͤʵ