+ ตอบกลับกระทู้
สรุปผลการค้นหา 1 ถึง 3 จากทั้งหมด 3
  1. #1
    Administrators รูปส่วนตัว Duckload.us
    สมัครเมื่อ
    Dec 2010
    โพสต์
    150,748
    Thanks
    7
    Thanked 158,010 Times in 68,987 Posts

    Exclamation [ฝรั่ง]-[• • หนังใหม่ร้อนๆ เสียงไทยโรง • • ] Retribution (2023) : เหยียบระห่ำ ดับโคตรแค้น [.1080p.WEB-DL.DDP5.1.Atmos.H.264] • ไฟล์ 1080p คุณภาพสูง! • [พากย์ไทยโรง + อังกฤษ] - [บรรยายไทย + อังกฤษ]



    เรื่องย่อ
    แมตต์ เทอร์เนอร์ นักธุรกิจชาวอเมริกันที่ลงหลักปักฐานในเบอร์ลิน เขากำลังไปได้สวยทั้งชีวิตครอบครัวและอาชีพการงาน แต่เหตุการณ์ไม่คาดฝันก็เกิดขึ้น ในเช้าวันหนึ่ง ระหว่างที่เขาขับรถไปส่งลูกๆที่โรงเรียน สายปริศนาสายหนึ่งได้โทรหาแมตต์ และบอกว่ามีระเบิดซ่อนอยู่ใต้เบาะรถของเขา ซึ่งจะทำงานทันทีถ้าเขาออกจากรถ หรือไม่สามารถทำภารกิจบางอย่างให้สำเร็จในเวลาจำกัด

    เขาติดอยู่ในรถที่ต้องเหยียบคันเร่งมิดไมล์ตระเวนไปท ั่วเบอร์ลิน และทำตามภารกิจของเสียงปริศนา ที่ทวีความอันตรายขึ้นทุกวินาทีเพื่อปกป้องครอบครัวข องเขา แมตต์ต้องตามล่าปลายสายปริศนาที่คอยบงการอยู่เบื้องห ลัง ก่อนที่ทุกอย่างจะสายเกินไป

    General
    Unique ID : 209270190648426125148742175142480693476 (0x9D6FF9007DB60188A90947E7449FC8E4)
    Complete name : EownloadsUPLOADRetribution.2023.1080p.WEB-DL.DDP5.1.Atmos.H.264.mkv
    Format : Matroska
    Format version : Version 4 / Version 2
    File size : 6.89 GiB
    Duration : 1 h 31 min
    Overall bit rate : 10.8 Mb/s
    Movie name : Retribution (2023)
    Encoded date : UTC 2023-09-16 23:29:43
    Writing application : mkvmerge v79.0 ('Funeral Pyres') 64-bit
    Writing library : libebml v1.4.4 + libmatroska v1.7.1
    Cover : Yes
    Attachments : cover

    Video
    ID : 1
    Format : AVC
    Format/Info : Advanced Video Codec
    Format profile : High@L4
    Format settings : CABAC / 5 Ref Frames
    Format settings, CABAC : Yes
    Format settings, ReFrames : 5 frames
    Codec ID : V_MPEG4/ISO/AVC
    Duration : 1 h 31 min
    Bit rate : 9 974 kb/s
    Width : 1 920 pixels
    Height : 802 pixels
    Display aspect ratio : 2.40:1
    Frame rate mode : Constant
    Frame rate : 23.976 (23976/1000) FPS
    Original frame rate : 23.976 (24000/1001) FPS
    Color space : YUV
    Chroma subsampling : 4:2:0
    Bit depth : 8 bits
    Scan type : Progressive
    Bits/(Pixel*Frame) : 0.270
    Stream size : 6.35 GiB (92%)
    Title : Retribution (2023)
    Language : English
    Default : Yes
    Forced : No
    Color range : Limited
    Color primaries : BT.709
    Transfer characteristics : BT.709
    Matrix coefficients : BT.709

    Audio #1
    ID : 2
    Format : E-AC-3
    Format/Info : Enhanced Audio Coding 3
    Format profile : E-AC-3+Atmos / E-AC-3
    Codec ID : A_EAC3
    Duration : 1 h 31 min
    Bit rate mode : Constant
    Bit rate : 768 kb/s
    Channel(s) : 15 objects / 6 channels
    Channel positions : 15 objects / Front: L C R, Side: L R, LFE
    Sampling rate : 48.0 kHz
    Frame rate : 187.500 FPS (256 SPF)
    Compression mode : Lossy
    Stream size : 501 MiB (7%)
    Title : ENG DDP Atmos 5.1
    Language : English
    Service kind : Complete Main
    Default : No
    Forced : No

    Audio #2
    ID : 3
    Format : AAC
    Format/Info : Advanced Audio Codec
    Format profile : LC
    Codec ID : A_AAC-2
    Duration : 1 h 31 min
    Bit rate : 73.9 kb/s
    Channel(s) : 2 channels
    Channel positions : Front: L R
    Sampling rate : 48.0 kHz
    Frame rate : 46.875 FPS (1024 SPF)
    Compression mode : Lossy
    Stream size : 48.2 MiB (1%)
    Title : TH AAC LC (Rong)
    Language : Thai
    Default : Yes
    Forced : No

    Text #1
    ID : 4
    Format : UTF-8
    Codec ID : S_TEXT/UTF8
    Codec ID/Info : UTF-8 Plain Text
    Duration : 1 h 22 min
    Bit rate : 53 b/s
    Count of elements : 1146
    Stream size : 32.4 KiB (0%)
    Language : English
    Default : No
    Forced : No

    Text #2
    ID : 5
    Format : UTF-8
    Codec ID : S_TEXT/UTF8
    Codec ID/Info : UTF-8 Plain Text
    Duration : 1 h 22 min
    Bit rate : 129 b/s
    Count of elements : 1131
    Stream size : 78.0 KiB (0%)
    Language : Thai
    Default : Yes
    Forced : No



    1080p+THR
    Download:filecondo
    http://www.filecondo.com/dl.php?f=M263ac1QHNyb

    Download:037file
    https://037file.com/ay15il4fq4zw

    บรรยายไทย - อนันต์ โพธิสูง
    Download:filecondo
    http://www.filecondo.com/dl.php?f=n6edfb1QHQyH

    Download:037file
    Retribution (2023).1080p.WEB-DL.DDP5.1.Atmos.H.265-Boot nalog.mkv - 1.8 GB

  2. The Following 2 Users Say Thank You to Duckload.us For This Useful Post:

    noi54 (09-17-2023), sawara (09-17-2023)

  3. #2
    Senior Member
    สมัครเมื่อ
    Dec 2013
    โพสต์
    1,041
    Thanks
    1,004
    Thanked 0 Times in 0 Posts
    ขอบคุณครับบ

  4. #3
    Senior Member
    สมัครเมื่อ
    Jul 2013
    โพสต์
    3,649
    Thanks
    0
    Thanked 0 Times in 0 Posts
    ขอบคุณครับ

+ ตอบกลับกระทู้

ข้อมูลกระทู้

Users Browsing this Thread

ในขณะนี้มี 1 ท่านดูกระทู้อยู่. (0 สมาชิกและ 1 ผู้เยี่ยมชม)

     

กฎการโพสต์ข้อความ

  • ท่าน ไม่สามารถ ตั้งกระทู้ใหม่ได้
  • ท่าน ไม่สามารถ ตอบกระทู้ได้
  • ท่าน ไม่สามารถ แนบไฟล์ได้
  • ท่าน ไม่สามารถ แก้ไขข้อความโพสต์ได้
  • BB code สถานะ เปิด
  • Smilies สถานะ เปิด
  • [IMG] สถานะ เปิด
  • HTML สถานะ ปิด