+ ตอบกลับกระทู้
สรุปผลการค้นหา 1 ถึง 4 จากทั้งหมด 4
  1. #1
    Administrators รูปส่วนตัว Duckload.us
    สมัครเมื่อ
    Dec 2010
    โพสต์
    150,748
    Thanks
    7
    Thanked 158,010 Times in 68,987 Posts

    Exclamation [ฝรั่ง] Blue Beetle (2023) บลู บีเทิล (Sound:Eng+Thai Rong)[SUB:อังกฤษ/ไทย]




    ด็กจบใหม่ เจมี เรเยส กลับมาด้วยความมุ่งมั่นตั้งใจเพื่ออนาคตของตัวเอง และเพื่อค้นหาความจริงว่าบ้านไม่ได้เงียบเหงาเหมือนต อนที่เขาจากมา เขาออกตามหาจุดมุ่งหมายของเขาบนโลกใบนี้ แต่แล้วโชคชะตาก็ได้นำพาให้เขาพบกับเศษซากโบราณของเท คโนโลยีชีวภาพจากต่างดาวชื่อว่า สคารับ ทันใดนั้น สคารับ ก็เข้าอาศัยอยู่ในร่างของ เจมี่ ทันที โดยมอบชุดเกราะอันน่าทึ่งที่มาพร้อมกับพลังวิเศษที่ไ ม่อาจคาดเดาได้ นับตั้งแต่นั้นโชคชะตาของ เจมี่ ก็เปลี่ยนไปตลอดกาลเมื่อเขาได้กลายเป็นซูเปอร์ฮีโร่ช ื่อว่า บลู บีเทิล

    Format : Matroska

    Format version : Version 4

    File size : 5.24 GiB

    Duration : 2 h 7 min

    Overall bit rate : 5 880 kb/s

    Frame rate : 23.976 FPS

    Movie name : Blue.Beetle.2023.1080p.WEBRip.DD5.1.x264.Thr_&#169 ;GOLD CUP™_WWW.TT-TORRENT.COM

    Video

    ID : 1

    Format : AVC

    Format/Info : Advanced Video Codec

    Format profile : High@L4

    Format settings : CABAC / 1 Ref Frames

    Format settings, CABAC : Yes

    Format settings, Reference : 1 frame

    Format settings, GOP : M=1, N=24

    Codec ID : V_MPEG4/ISO/AVC

    Duration : 2 h 7 min

    Bit rate mode : Constant

    Bit rate : 5 312 kb/s

    Width : 1 920 pixels

    Height : 802 pixels

    Display aspect ratio : 2.40:1

    Frame rate mode : Constant

    Frame rate : 23.976 (24000/1001) FPS

    Color space : YUV

    Chroma subsampling : 4:2:0

    Bit depth : 8 bits

    Scan type : Progressive

    Bits/(Pixel*Frame) : 0.144

    Stream size : 4.73 GiB (90%)

    Title : Blue.Beetle.2023.1080p.WEBRip.DD5.1.x264.Thr_&#169 ;GOLD CUP™

    Language : English

    Default : Yes

    Forced : No

    Audio #1

    ID : 2

    Format : AC-3

    Format/Info : Audio Coding 3

    Commercial name : Dolby Digital

    Codec ID : A_AC3

    Duration : 2 h 7 min

    Bit rate mode : Constant

    Bit rate : 320 kb/s

    Channel(s) : 6 channels

    Channel layout : L R C LFE Ls Rs

    Sampling rate : 48.0 kHz

    Frame rate : 31.250 FPS (1536 SPF)

    Bit depth : 32 bits

    Compression mode : Lossy

    Stream size : 292 MiB (5%)

    Title : En.AC3_320 kbs.6 channels

    Language : English

    Service kind : Complete Main

    Default : Yes

    Forced : No

    Audio #2

    ID : 3

    Format : AC-3

    Format/Info : Audio Coding 3

    Commercial name : Dolby Digital

    Codec ID : A_AC3

    Duration : 2 h 7 min

    Bit rate mode : Constant

    Bit rate : 192 kb/s

    Channel(s) : 2 channels

    Channel layout : L R

    Sampling rate : 48.0 kHz

    Frame rate : 31.250 FPS (1536 SPF)

    Compression mode : Lossy

    Stream size : 175 MiB (3%)

    Title : Thr.2.0.AC3.192k

    Language : Thai

    Service kind : Complete Main

    Default : Yes

    Forced : No

    Text #1

    ID : 4

    Format : PGS

    Muxing mode : zlib

    Codec ID : S_HDMV/PGS

    Codec ID/Info : Picture based subtitle format used on BDs/HD-DVDs

    Duration : 1 h 52 min

    Bit rate : 2 410 b/s

    Frame rate : 0.028 FPS

    Count of elements : 192

    Stream size : 1.95 MiB (0%)

    Title : EN.Forced.130.3.100.Purperl

    Language : English

    Default : No

    Forced : Yes

    Text #2

    ID : 5

    Format : PGS

    Muxing mode : zlib

    Codec ID : S_HDMV/PGS

    Codec ID/Info : Picture based subtitle format used on BDs/HD-DVDs

    Duration : 2 h 6 min

    Bit rate : 68.5 kb/s

    Frame rate : 0.619 FPS

    Count of elements : 4720

    Stream size : 62.2 MiB (1%)

    Title : EN.SDH.130.3.100.Blue

    Language : English

    Default : Yes

    Forced : No

    Text #3

    ID : 6

    Format : PGS

    Muxing mode : zlib

    Codec ID : S_HDMV/PGS

    Codec ID/Info : Picture based subtitle format used on BDs/HD-DVDs

    Duration : 1 h 58 min

    Bit rate : 48.4 kb/s

    Frame rate : 0.430 FPS

    Count of elements : 3062

    Stream size : 41.1 MiB (1%)

    Title : Th.3.110.95.White.1080p

    Language : Thai

    Default : Yes

    Forced : No







    Download:filecondo
    Blue.Beetle.2023.1080p.WEBRip.DD5.1.x264.Thr_GOLD_ CUP.mkv
    http://www.filecondo.com/dl.php?f=A748131QIyns

    Blue.Beetle.2023.DDP5.1.x265.mkv
    http://www.filecondo.com/dl.php?f=ae32e21QIykp

    Blue.Beetle.2023.1080p.10bit.WEBRip.6CH.x265.HEVC. mkv
    http://www.filecondo.com/dl.php?f=g20ce21QIyjn

    Blue_Beetle_(2023).mkv
    http://www.filecondo.com/dl.php?f=0339a31QIyiD


    Download:037file
    Blue Beetle (2023).mkv - 6.5 GB
    Blue.Beetle.2023.1080p.10bit.WEBRip.6CH.x265.HEVC. mkv - 2.3 GB
    Blue.Beetle.2023.1080p.WEBRip.DD5.1.x264.Thr_GOLD CUP.mkv - 5.2 GB
    Blue.Beetle.2023.DDP5.1.x265.mkv - 2.7 GB

  2. The Following 3 Users Say Thank You to Duckload.us For This Useful Post:

    Filepre (09-21-2023), Nam1499 (03-05-2024), sawara (09-19-2023)

  3. #2
    Senior Member
    สมัครเมื่อ
    Jul 2013
    โพสต์
    3,649
    Thanks
    0
    Thanked 0 Times in 0 Posts
    ขอบคุณครับ

  4. #3
    Senior Member
    สมัครเมื่อ
    Dec 2013
    โพสต์
    1,041
    Thanks
    1,004
    Thanked 0 Times in 0 Posts
    ขอบคุณครับบ

  5. #4
    Senior Member
    สมัครเมื่อ
    Feb 2024
    โพสต์
    254
    Thanks
    221
    Thanked 0 Times in 0 Posts
    ข อ บ คุ ณ ม า ก ค่ ะ

+ ตอบกลับกระทู้

ข้อมูลกระทู้

Users Browsing this Thread

ในขณะนี้มี 1 ท่านดูกระทู้อยู่. (0 สมาชิกและ 1 ผู้เยี่ยมชม)

     

กฎการโพสต์ข้อความ

  • ท่าน ไม่สามารถ ตั้งกระทู้ใหม่ได้
  • ท่าน ไม่สามารถ ตอบกระทู้ได้
  • ท่าน ไม่สามารถ แนบไฟล์ได้
  • ท่าน ไม่สามารถ แก้ไขข้อความโพสต์ได้
  • BB code สถานะ เปิด
  • Smilies สถานะ เปิด
  • [IMG] สถานะ เปิด
  • HTML สถานะ ปิด