+ ตอบกลับกระทู้
สรุปผลการค้นหา 1 ถึง 5 จากทั้งหมด 5
  1. #1
    Administrators รูปส่วนตัว Duckload.us
    สมัครเมื่อ
    Dec 2010
    โพสต์
    152,670
    Thanks
    7
    Thanked 159,860 Times in 69,926 Posts

    Exclamation [ฝรั่ง] Barbie (2023) บาร์บี้ (Sound:Eng/Thai Master)[SUB:อังกฤษ/ไทย]



    การใช้ชีวิตในบาร์บี้แลนด์คือการมีชีวิตที่สมบูรณ์แบ บในสถานที่ที่สมบูรณ์แบบ เว้นแต่คุณจะมีปัญหาทางอารมณ์หรือว่าคุณคือเคน


    Format : Matroska

    Format version : Version 4

    File size : 5.18 GiB

    Duration : 1 h 54 min

    Overall bit rate : 6 498 kb/s

    Frame rate : 23.976 FPS

    Movie name : Barbie.2023.1080p.WEBRip.x264_©GOLD CUP™_WWW.TT-TORRENT.COM

    Video

    ID : 1

    Format : AVC

    Format/Info : Advanced Video Codec

    Format profile : Main@L4

    Format settings : CABAC / 1 Ref Frames

    Format settings, CABAC : Yes

    Format settings, Reference : 1 frame

    Format settings, GOP : M=1, N=25

    Codec ID : V_MPEG4/ISO/AVC

    Duration : 1 h 54 min

    Bit rate mode : Constant

    Bit rate : 5 852 kb/s

    Width : 1 920 pixels

    Height : 960 pixels

    Display aspect ratio : 2.000

    Frame rate mode : Constant

    Frame rate : 23.976 (24000/1001) FPS

    Color space : YUV

    Chroma subsampling : 4:2:0

    Bit depth : 8 bits

    Scan type : Progressive

    Bits/(Pixel*Frame) : 0.132

    Stream size : 4.66 GiB (90%)

    Title : Barbie.2023.1080p.WEBRip.x264_©GOLD CUP™

    Language : English

    Default : Yes

    Forced : No

    Audio #1

    ID : 2

    Format : AAC LC

    Format/Info : Advanced Audio Codec Low Complexity

    Codec ID : A_AAC-2

    Duration : 1 h 54 min

    Bit rate : 384 kb/s

    Channel(s) : 6 channels

    Channel layout : C L R Ls Rs LFE

    Sampling rate : 48.0 kHz

    Frame rate : 46.875 FPS (1024 SPF)

    Compression mode : Lossy

    Stream size : 313 MiB (6%)

    Title : En.AAC_384 kbs.6 channels

    Language : English

    Default : Yes

    Forced : No

    Audio #2

    ID : 3

    Format : AC-3

    Format/Info : Audio Coding 3

    Commercial name : Dolby Digital

    Codec ID : A_AC3

    Duration : 1 h 54 min

    Bit rate mode : Constant

    Bit rate : 192 kb/s

    Channel(s) : 2 channels

    Channel layout : L R

    Sampling rate : 48.0 kHz

    Frame rate : 31.250 FPS (1536 SPF)

    Compression mode : Lossy

    Stream size : 157 MiB (3%)

    Title : Th.2.0.AC3.192k

    Language : Thai

    Service kind : Complete Main

    Default : Yes

    Forced : No

    Text #1

    ID : 4

    Format : PGS

    Muxing mode : zlib

    Codec ID : S_HDMV/PGS

    Codec ID/Info : Picture based subtitle format used on BDs/HD-DVDs

    Duration : 1 h 52 min

    Bit rate : 92.2 kb/s

    Frame rate : 0.754 FPS

    Count of elements : 5086

    Stream size : 74.2 MiB (1%)

    Title : EN.130.3.100.Yellow

    Language : English

    Default : Yes

    Forced : No

    Text #2

    ID : 5

    Format : PGS

    Muxing mode : zlib

    Codec ID : S_HDMV/PGS

    Codec ID/Info : Picture based subtitle format used on BDs/HD-DVDs

    Duration : 1 h 53 min

    Bit rate : 60.9 kb/s

    Frame rate : 0.574 FPS

    Count of elements : 3906

    Stream size : 49.4 MiB (1%)

    Title : Th.3.110.95.White.1080p

    Language : Thai

    Default : Yes

    Forced : No

    Menu

    00:00:00.000 : en:Chapter 01

    00:11:14.132 : en:Chapter 02

    00:19:20.952 : en:Chapter 03

    00:29:55.420 : en:Chapter 04

    00:41:41.334 : en:Chapter 05

    00:51:30.840 : en:Chapter 06

    01:00:32.966 : en:Chapter 07

    01:11:06.474 : en:Chapter 08

    01:20:44.010 : en:Chapter 09

    01:31:06.758 : en:Chapter 10

    01:41:48.775 : en:Chapter 11

    01:47:19.981 : en:Chapter 12






    Download:filecondo
    Barbie.2023.1080p.WEBRip.x264_GOLD_CUP.mkv
    http://www.filecondo.com/dl.php?f=c8c23e1QIymo

    Download:037file
    Barbie.2023.1080p.WEBRip.x264_GOLD CUP.mkv - 5.2 GB

  2. The Following 4 Users Say Thank You to Duckload.us For This Useful Post:

    bigbang06 (09-19-2023), Jodz14 (09-23-2023), sawara (09-19-2023), Wesker_TOT (09-20-2023)

  3. #2
    Senior Member
    สมัครเมื่อ
    Jul 2013
    โพสต์
    3,742
    Thanks
    0
    Thanked 0 Times in 0 Posts
    ขอบคุณครับ

  4. #3
    Senior Member
    สมัครเมื่อ
    Dec 2013
    โพสต์
    6,362
    Thanks
    8,344
    Thanked 0 Times in 0 Posts
    ขอบคุณครับ...

  5. #4
    Senior Member
    สมัครเมื่อ
    Dec 2013
    โพสต์
    1,091
    Thanks
    1,056
    Thanked 0 Times in 0 Posts
    ขอบคุณครับบ

  6. #5
    Senior Member
    สมัครเมื่อ
    Jul 2012
    โพสต์
    8,660
    Thanks
    0
    Thanked 0 Times in 0 Posts
    ขอบคุณมากจ้า

+ ตอบกลับกระทู้

ข้อมูลกระทู้

Users Browsing this Thread

ในขณะนี้มี 1 ท่านดูกระทู้อยู่. (0 สมาชิกและ 1 ผู้เยี่ยมชม)

     

กฎการโพสต์ข้อความ

  • ท่าน ไม่สามารถ ตั้งกระทู้ใหม่ได้
  • ท่าน ไม่สามารถ ตอบกระทู้ได้
  • ท่าน ไม่สามารถ แนบไฟล์ได้
  • ท่าน ไม่สามารถ แก้ไขข้อความโพสต์ได้
  • BB code สถานะ เปิด
  • Smilies สถานะ เปิด
  • [IMG] สถานะ เปิด
  • HTML สถานะ ปิด