+ ตอบกลับกระทู้
สรุปผลการค้นหา 1 ถึง 1 จากทั้งหมด 1
  1. #1
    Administrators รูปส่วนตัว Duckload.us
    สมัครเมื่อ
    Dec 2010
    โพสต์
    152,110
    Thanks
    7
    Thanked 159,085 Times in 69,585 Posts

    Exclamation [ฝรั่ง]-[AMZN] A Million Miles Away (2023) ฝันให้ไกล ไปถึงอวกาศ-WEB-DL.H.264.1080p. [Master]-[English 5.1 บรรยายไทย]



    ได้รับแรงบันดาลใจจากชีวิตจริงของโฮเซ่ เฮร์นันเดซ วิศวกรการบินนาซ่า ฝันให้ไกล ไปถึงอวกาศติดตามเขาและครอบครัวชาวอพยพผู้ทุ่มเทที่เ ป็นคนงานในไร่และทะนงตนในการเดินทางยาวนานหลายทศวรรษ จากหมู่บ้านชนบทในรัฐมิโชอากัน เม็กซิโกสู่หุบเขาซาน วาคีน สู่สถานีอวกาศนานาชาติที่อยู่เหนือโลก 320 กิโลเมตร การสนับสนุนของครอบครัว รวมกับแรงผลักดันและความมุ่งมั่นของโฮเซ่ เพื่อทำเป้าหมายที่ดูเป็นไปไม่ได้ของเขาให้สำเร็จ

    Video
    ID : 1
    Format : AVC
    Format/Info : Advanced Video Codec
    Format profile : High@L4
    Format settings : CABAC / 4 Ref Frames
    Format settings, CABAC : Yes
    Format settings, Reference frames : 4 frames
    Codec ID : V_MPEG4/ISO/AVC
    Duration : 2 h 2 min
    Bit rate mode : Constant
    Bit rate : 7 942 kb/s
    Nominal bit rate : 10 000 kb/s
    Width : 1 920 pixels
    Height : 1 040 pixels
    Display aspect ratio : 1.85:1
    Frame rate mode : Constant
    Frame rate : 24.000 FPS
    Color space : YUV
    Chroma subsampling : 4:2:0
    Bit depth : 8 bits
    Scan type : Progressive
    Bits/(Pixel*Frame) : 0.166
    Stream size : 6.77 GiB (93%)
    Default : Yes
    Forced : No
    Color range : Limited
    Color primaries : BT.709
    Transfer characteristics : BT.709
    Matrix coefficients : BT.709

    Audio
    ID : 2
    Format : E-AC-3
    Format/Info : Enhanced AC-3
    Commercial name : Dolby Digital Plus
    Codec ID : A_EAC3
    Duration : 2 h 2 min
    Bit rate mode : Constant
    Bit rate : 640 kb/s
    Channel(s) : 6 channels
    Channel layout : L R C LFE Ls Rs
    Sampling rate : 48.0 kHz
    Frame rate : 31.250 FPS (1536 SPF)
    Compression mode : Lossy
    Stream size : 559 MiB (7%)
    Language : English
    Service kind : Complete Main
    Default : Yes
    Forced : No

    Text #1
    ID : 3
    Format : UTF-8
    Codec ID : S_TEXT/UTF8
    Codec ID/Info : UTF-8 Plain Text
    Duration : 2 h 0 min
    Bit rate : 120 b/s
    Frame rate : 0.184 FPS
    Count of elements : 1327
    Stream size : 106 KiB (0%)
    Language : Thai
    Default : No
    Forced : No

    Text #2
    ID : 4
    Format : UTF-8
    Codec ID : S_TEXT/UTF8
    Codec ID/Info : UTF-8 Plain Text
    Duration : 1 h 46 min
    Bit rate : 6 b/s
    Frame rate : 0.036 FPS
    Count of elements : 229
    Stream size : 5.37 KiB (0%)
    Title : Forced
    Language : English
    Default : Yes
    Forced : Yes

    Text #3
    ID : 5
    Format : UTF-8
    Codec ID : S_TEXT/UTF8
    Codec ID/Info : UTF-8 Plain Text
    Duration : 2 h 0 min
    Bit rate : 63 b/s
    Frame rate : 0.255 FPS
    Count of elements : 1845
    Stream size : 56.4 KiB (0%)
    Title : SDH
    Language : English
    Default : No
    Forced : No

    Menu
    00:00:00.000 : en:Studio Logo
    00:00:27.000 : en:Scene 2
    00:03:08.000 : en:Scene 3
    00:04:41.000 : en:Scene 4
    00:05:37.000 : en:Scene 5
    00:05:54.000 : en:Scene 6
    00:07:46.000 : en:Scene 7
    00:08:55.000 : en:Scene 8
    00:09:11.000 : en:Scene 9
    00:09:16.000 : en:Scene 10
    00:11:32.000 : en:Scene 11
    00:13:58.000 : en:Scene 12
    00:16:37.000 : en:Scene 13
    00:17:48.000 : en:Scene 14
    00:17:54.000 : en:Scene 15
    00:20:19.000 : en:Scene 16
    00:21:20.000 : en:Scene 17
    00:24:21.000 : en:Scene 18
    00:25:20.000 : en:Scene 19
    00:28:31.000 : en:Scene 20
    00:29:38.000 : en:Scene 21
    00:33:21.000 : en:Scene 22
    00:36:18.000 : en:Scene 23
    00:37:43.000 : en:Scene 24
    00:41:00.000 : en:Scene 25
    00:41:37.000 : en:Scene 26
    00:45:54.000 : en:Scene 27
    00:49:19.000 : en:Scene 28
    00:50:21.000 : en:Scene 29
    00:52:46.000 : en:Scene 30
    00:54:37.000 : en:Scene 31
    00:57:04.000 : en:Scene 32
    00:58:23.000 : en:Scene 33
    01:00:18.000 : en:Scene 34
    01:02:15.000 : en:Scene 35
    01:02:21.000 : en:Scene 36
    01:04:41.000 : en:Scene 37
    01:07:13.000 : en:Scene 38
    01:08:40.000 : en:Scene 39
    01:11:24.000 : en:Scene 40
    01:12:28.000 : en:Scene 41
    01:15:12.000 : en:Scene 42
    01:18:16.000 : en:Scene 43
    01:20:30.000 : en:Scene 44
    01:22:05.000 : en:Scene 45
    01:24:10.000 : en:Scene 46
    01:24:26.000 : en:Scene 47
    01:24:33.000 : en:Scene 48
    01:26:46.000 : en:Scene 49
    01:28:35.000 : en:Scene 50
    01:30:49.000 : en:Scene 51
    01:30:57.000 : en:Scene 52
    01:32:44.000 : en:Scene 53
    01:33:44.000 : en:Scene 54
    01:35:50.000 : en:Scene 55
    01:37:39.000 : en:Scene 56
    01:39:45.000 : en:Scene 57
    01:41:02.000 : en:Scene 58
    01:42:48.000 : en:Scene 59
    01:43:42.000 : en:Scene 60
    01:49:43.000 : en:Scene 61
    01:50:57.000 : en:Scene 62
    01:51:13.000 : en:Scene 63
    01:51:18.000 : en:Scene 64
    01:51:28.000 : en:Scene 65
    01:51:37.000 : en:Scene 66
    01:51:44.000 : en:Scene 67
    01:51:57.000 : en:Scene 68
    01:52:06.000 : en:Scene 69
    01:52:13.000 : en:End Credits
    01:54:39.000 : en:Title Sequence
    01:54:48.000 : en:End Credits



    Download:filecondo
    http://www.filecondo.com/dl.php?f=Ndfea31QHIDt

    Download:037file
    A.Million.Miles.Away.2023.mkv - 7.3 GB

  2. The Following User Says Thank You to Duckload.us For This Useful Post:

    noi54 (09-21-2023)

+ ตอบกลับกระทู้

ข้อมูลกระทู้

Users Browsing this Thread

ในขณะนี้มี 1 ท่านดูกระทู้อยู่. (0 สมาชิกและ 1 ผู้เยี่ยมชม)

     

กฎการโพสต์ข้อความ

  • ท่าน ไม่สามารถ ตั้งกระทู้ใหม่ได้
  • ท่าน ไม่สามารถ ตอบกระทู้ได้
  • ท่าน ไม่สามารถ แนบไฟล์ได้
  • ท่าน ไม่สามารถ แก้ไขข้อความโพสต์ได้
  • BB code สถานะ เปิด
  • Smilies สถานะ เปิด
  • [IMG] สถานะ เปิด
  • HTML สถานะ ปิด