+ ตอบกลับกระทู้
สรุปผลการค้นหา 1 ถึง 2 จากทั้งหมด 2
  1. #1
    Administrators รูปส่วนตัว Duckload.us
    สมัครเมื่อ
    Dec 2010
    โพสต์
    152,251
    Thanks
    7
    Thanked 159,160 Times in 69,626 Posts

    Exclamation [เกาหลี]Ransomed (2023) คู่ระห่ำ ไถ่ข้ามโลก (Sound: Korean/Thai Rong)



    นักการทูตหนุ่มถูกมอบหมายให้นำเอาเงินค่าไถ่ไปช่วยเห ลือนักการทูตที่ถูกลักพาตัวไปในเลบานอน และคนขับแท็กซี่ในพื้นที่ก็เข้ามาเกี่ยวข้องโดยไม่ได ้ตั้งใจ

    Format : Matroska

    Format version : Version 4

    File size : 4.82 GiB

    Duration : 2 h 12 min

    Overall bit rate : 5 218 kb/s

    Frame rate : 23.976 FPS

    Movie name : Ransomed 2023 1080p WEB-DLx264_©GOLD CUP™_WWW.TT-TORRENT.COM

    Video

    ID : 1

    Format : AVC

    Format/Info : Advanced Video Codec

    Format profile : Main@L4

    Format settings : CABAC / 1 Ref Frames

    Format settings, CABAC : Yes

    Format settings, Reference : 1 frame

    Format settings, GOP : M=1, N=25

    Codec ID : V_MPEG4/ISO/AVC

    Duration : 2 h 12 min

    Bit rate mode : Constant

    Bit rate : 4 849 kb/s

    Width : 1 920 pixels

    Height : 804 pixels

    Display aspect ratio : 2.40:1

    Frame rate mode : Constant

    Frame rate : 23.976 (24000/1001) FPS

    Color space : YUV

    Chroma subsampling : 4:2:0

    Bit depth : 8 bits

    Scan type : Progressive

    Bits/(Pixel*Frame) : 0.131

    Stream size : 4.48 GiB (93%)

    Title : Ransomed 2023 1080p WEB-DLx264_©GOLD CUP™

    Language : Korean

    Default : Yes

    Forced : No

    Audio #1

    ID : 2

    Format : AAC LC

    Format/Info : Advanced Audio Codec Low Complexity

    Codec ID : A_AAC-2

    Duration : 2 h 12 min

    Bit rate : 113 kb/s

    Channel(s) : 2 channels

    Channel layout : L R

    Sampling rate : 48.0 kHz

    Frame rate : 46.875 FPS (1024 SPF)

    Compression mode : Lossy

    Stream size : 107 MiB (2%)

    Title : Korean.AAC.2.0_113 kbs

    Language : Korean

    Default : Yes

    Forced : No

    Audio #2

    ID : 3

    Format : AAC LC

    Format/Info : Advanced Audio Codec Low Complexity

    Codec ID : A_AAC-2

    Duration : 2 h 12 min

    Bit rate : 254 kb/s

    Channel(s) : 2 channels

    Channel layout : L R

    Sampling rate : 44.1 kHz

    Frame rate : 43.066 FPS (1024 SPF)

    Compression mode : Lossy

    Stream size : 240 MiB (5%)

    Title : Th.AAC.2.0_254 kbs

    Language : Thai

    Default : Yes

    Forced : No






    Download:filecondo
    http://www.filecondo.com/dl.php?f=1675b61QJDuO

    Download:037file
    Ransomed 2023 1080p WEB-DLx264_GOLD CUP.mkv - 4.8 GB

  2. The Following User Says Thank You to Duckload.us For This Useful Post:

    Wesker_TOT (09-25-2023)

  3. #2
    Senior Member
    สมัครเมื่อ
    Dec 2013
    โพสต์
    6,298
    Thanks
    8,281
    Thanked 0 Times in 0 Posts
    ขอบคุณครับ...

+ ตอบกลับกระทู้

ข้อมูลกระทู้

Users Browsing this Thread

ในขณะนี้มี 1 ท่านดูกระทู้อยู่. (0 สมาชิกและ 1 ผู้เยี่ยมชม)

     

กฎการโพสต์ข้อความ

  • ท่าน ไม่สามารถ ตั้งกระทู้ใหม่ได้
  • ท่าน ไม่สามารถ ตอบกระทู้ได้
  • ท่าน ไม่สามารถ แนบไฟล์ได้
  • ท่าน ไม่สามารถ แก้ไขข้อความโพสต์ได้
  • BB code สถานะ เปิด
  • Smilies สถานะ เปิด
  • [IMG] สถานะ เปิด
  • HTML สถานะ ปิด