+ ตอบกลับกระทู้
สรุปผลการค้นหา 1 ถึง 1 จากทั้งหมด 1
  1. #1
    Administrators รูปส่วนตัว Duckload.us
    สมัครเมื่อ
    Dec 2010
    โพสต์
    152,670
    Thanks
    7
    Thanked 159,860 Times in 69,926 Posts

    Exclamation [AMZN] Infinite Storm (2022) ฝ่ามหันตภัยพายุนรก [พากย์:อังกฤษ5.1][SUB:ไทย/อังกฤษ][1080i/p] [EAC-3][H264/H265][ซับไทย AMZN PGS+Vobsub+SRT]



    ขณะปีนขึ้นภูเขาวอชิงตันในรัฐนิวแฮมป์เชียร์ นักปีนเขามากประสบการณ์ (นาโอมิ วัตต์) ตัดสินใจหันหลังกลับก่อนจะไปถึงยอดเมื่อเห็นพายุหิมะ ใกล้เข้ามา แต่ระหว่างเดินลงเขาไป เธอได้พบกับชายคนหนึ่งที่ติดค้างอยู่ เธอจึงตัดสินใจพาเขาลงจากภูเขาก่อนฟ้าจะค่ำ และต้องยอมจำนนต่อพายุ สร้างจากเรื่องจริง

    ผู้กำกับ
    Malgorzata Szumowska
    แสดงโดย
    Naomi Watts, Denis O'Hare, Joshua Rollins
    สตูดิโอ
    Bleecker Street










    Format : Matroska
    Format version : Version 4
    File size : 3.59 GiB
    Duration : 1 h 37 min
    Overall bit rate : 5 240 kb/s
    Movie name : Infinite.Storm.2022.1080p.AMZN.APP-DL.DDP5.1.H264@Argon
    Encoded date : UTC 2023-09-19 13:38:43
    Writing application : mkvmerge v74.0.0 ('You Oughta Know') 64-bit
    Writing library : libebml v1.4.4 + libmatroska v1.7.1
    Cover : Yes
    Attachments : cover.png

    Video
    ID : 1
    Format : AVC
    Format/Info : Advanced Video Codec
    Format profile : High@L4
    Format settings : CABAC / 4 Ref Frames
    Format settings, CABAC : Yes
    Format settings, Reference fra : 4 frames
    Codec ID : V_MPEG4/ISO/AVC
    Duration : 1 h 37 min
    Bit rate : 4 591 kb/s
    Width : 1 920 pixels
    Height : 800 pixels
    Display aspect ratio : 2.40:1
    Frame rate mode : Constant
    Frame rate : 23.976 (24000/1001) FPS
    Color space : YUV
    Chroma subsampling : 4:2:0
    Bit depth : 8 bits
    Scan type : Progressive
    Bits/(Pixel*Frame) : 0.125
    Stream size : 3.14 GiB (88%)
    Title : Infinite.Storm.2022.1080p.AMZN.APP-DL.DDP5.1.H264@Argon
    Default : Yes
    Forced : No
    Color range : Limited
    Color primaries : BT.709
    Transfer characteristics : BT.709
    Matrix coefficients : BT.709

    Audio
    ID : 2
    Format : E-AC-3
    Format/Info : Enhanced AC-3
    Commercial name : Dolby Digital Plus
    Codec ID : A_EAC3
    Duration : 1 h 37 min
    Bit rate mode : Constant
    Bit rate : 640 kb/s
    Channel(s) : 6 channels
    Channel layout : L R C LFE Ls Rs
    Sampling rate : 48.0 kHz
    Frame rate : 31.250 FPS (1536 SPF)
    Compression mode : Lossy
    Stream size : 448 MiB (12%)
    Language : English
    Service kind : Complete Main
    Default : Yes
    Forced : No

    Text #1
    ID : 3
    Format : PGS
    Muxing mode : zlib
    Codec ID : S_HDMV/PGS
    Codec ID/Info : Picture based subtitle format used on BDs/HD-DVDs
    Duration : 1 h 37 min
    Bit rate : 12.3 kb/s
    Frame rate : 0.183 FPS
    Count of elements : 1064
    Stream size : 8.51 MiB (0%)
    Language : Thai (TH)
    Default : Yes
    Forced : Yes

    Text #2
    ID : 4
    Format : VobSub
    Muxing mode : zlib
    Codec ID : S_VOBSUB
    Codec ID/Info : Picture based subtitle format used on DVDs
    Duration : 1 h 37 min
    Bit rate : 2 975 b/s
    Frame rate : 0.091 FPS
    Count of elements : 532
    Stream size : 2.07 MiB (0%)
    Language : Thai
    Default : Yes
    Forced : No

    Text #3
    ID : 5
    Format : UTF-8
    Codec ID : S_TEXT/UTF8
    Codec ID/Info : UTF-8 Plain Text
    Duration : 1 h 37 min
    Bit rate : 40 b/s
    Frame rate : 0.091 FPS
    Count of elements : 532
    Stream size : 29.1 KiB (0%)
    Language : Thai (TH)
    Default : Yes
    Forced : No

    Text #4
    ID : 6
    Format : UTF-8
    Codec ID : S_TEXT/UTF8
    Codec ID/Info : UTF-8 Plain Text
    Duration : 1 h 32 min
    Bit rate : 24 b/s
    Frame rate : 0.133 FPS
    Count of elements : 739
    Stream size : 16.5 KiB (0%)
    Title : SDH
    Language : English (US)
    Default : Yes
    Forced : No

    Menu
    00:00:00.000 : en:1. Studio Logo
    00:00:53.000 : en:Scene 2
    00:00:56.000 : en:Scene 3
    00:08:50.000 : en:Scene 4
    00:17:22.000 : en:Scene 5
    00:24:53.000 : en:Scene 6
    00:34:55.000 : en:Scene 7
    00:36:28.000 : en:Scene 8
    00:38:19.000 : en:Scene 9
    00:40:21.000 : en:Scene 10
    00:53:12.000 : en:Scene 11
    01:03:18.000 : en:Scene 12
    01:11:09.000 : en:Scene 13
    01:18:18.000 : en:Scene 14
    01:29:02.000 : en:Scene 15
    01:31:40.000 : en:Scene 16
    01:32:12.000 : en:Scene 17


    Infinite.Storm.2022.1080p.AMZN.APP-DL.DDP5.1.HEVC.H265.mkv
    http://www.filecondo.com/dl.php?f=977d0e1QJDqC

    Infinite.Storm.2022.1080p.AMZN.APP-DL.DDP5.1.H264.mkv
    http://www.filecondo.com/dl.php?f=y6ea6e1QJDpK


    Infinite.Storm.2022.1080p.AMZN.APP-DL.DDP5.1.H264.mkv - 3.6 GB
    Infinite.Storm.2022.1080p.AMZN.APP-DL.DDP5.1.HEVC.H265.mkv - 1.9 GB

  2. The Following User Says Thank You to Duckload.us For This Useful Post:

    noi54 (10-04-2023)

+ ตอบกลับกระทู้

ข้อมูลกระทู้

Users Browsing this Thread

ในขณะนี้มี 1 ท่านดูกระทู้อยู่. (0 สมาชิกและ 1 ผู้เยี่ยมชม)

     

กฎการโพสต์ข้อความ

  • ท่าน ไม่สามารถ ตั้งกระทู้ใหม่ได้
  • ท่าน ไม่สามารถ ตอบกระทู้ได้
  • ท่าน ไม่สามารถ แนบไฟล์ได้
  • ท่าน ไม่สามารถ แก้ไขข้อความโพสต์ได้
  • BB code สถานะ เปิด
  • Smilies สถานะ เปิด
  • [IMG] สถานะ เปิด
  • HTML สถานะ ปิด