+ ตอบกลับกระทู้
สรุปผลการค้นหา 1 ถึง 2 จากทั้งหมด 2
  1. #1
    Administrators รูปส่วนตัว Duckload.us
    สมัครเมื่อ
    Dec 2010
    โพสต์
    147,930
    Thanks
    7
    Thanked 155,115 Times in 67,701 Posts

    Exclamation [ฝรั่ง]-Expend4bles (2023) โคตรคนทีมมหากาฬ 4-WEB-DL.H.264.1080p. [หนังซูม]-[พากย์ไทยโรง]




    ทีม Expendables ทั้งหน้าเก่าและหน้าใหม่ ต้องออกไปทำภารกิจบุกไปที่โรงเก็บอาวุธเคมีเก่าของ กัดฮาฟี่ ในลิเบียเพื่อสกัดกั้น ราห์หมัด อดีตนักค้าอาวุธชาวอังกฤษพร้อมกับกองทัพของเขาได้ขโม ยกระเป๋าบรรจุตัวจุดชนวนหัวรบนิวเคลียร์ไปให้ผู้ว่าจ ้างสุดชั่วร้ายอย่าง โอซะลอท กับ ราห์หมัด และได้หลบหนีไปก่อนที่ทีม Expendables จะหยุดเขาไว้ได้ ถ้าหากตัวจุดชนวนไปถึงมือโอซะลอทโลกจะถูกทำลาย หลังจากความพยายามที่จะจับกุมราห์หมัดล้มเหลว การตามล่าดำเนินต่อมาจนถึงเรือ Jantara ที่ที่ซึ่งการเผยตัวของโอซะลอทและการหักมุมได้เริ่มต ้นขึ้น


    Video
    ID : 1
    Format : AVC
    Format/Info : Advanced Video Codec
    Format profile : Main@L5
    Format settings : CABAC / 1 Ref Frames
    Format settings, CABAC : Yes
    Format settings, Reference fra : 1 frame
    Codec ID : V_MPEG4/ISO/AVC
    Duration : 1 h 32 min
    Bit rate mode : Variable
    Bit rate : 12.8 Mb/s
    Maximum bit rate : 38.4 Mb/s
    Width : 2 468 pixels
    Height : 1 080 pixels
    Display aspect ratio : 2.25:1
    Frame rate mode : Constant
    Frame rate : 30.000 FPS
    Color space : YUV
    Chroma subsampling : 4:2:0
    Bit depth : 8 bits
    Scan type : Progressive
    Bits/(Pixel*Frame) : 0.160
    Stream size : 8.26 GiB (98%)
    Default : Yes
    Forced : No
    Color range : Limited
    Color primaries : BT.709
    Transfer characteristics : BT.709
    Matrix coefficients : BT.709

    Audio
    ID : 2
    Format : AAC LC
    Format/Info : Advanced Audio Codec Low Complexity
    Codec ID : A_AAC-2
    Duration : 1 h 32 min
    Bit rate : 254 kb/s
    Channel(s) : 2 channels
    Channel layout : L R
    Sampling rate : 44.1 kHz
    Frame rate : 43.066 FPS (1024 SPF)
    Compression mode : Lossy
    Stream size : 168 MiB (2%)
    Language : Thai
    Default : Yes
    Forced : No



    Expend4bles_(2023)_โคตรคนทีมมหากาฬ_4.1080p.HDCAM.M odified_By_mxn.mkv
    http://www.filecondo.com/dl.php?f=X0c54d1QKkzN

    Expend4bles (2023).1080p.HDCAM.Modified By mxn.mkv - 8.4 GB

  2. The Following 3 Users Say Thank You to Duckload.us For This Useful Post:

    rakterkonne (09-27-2023), sawara (09-28-2023), Wesker_TOT (09-25-2023)

  3. #2
    Senior Member
    สมัครเมื่อ
    Dec 2013
    โพสต์
    5,694
    Thanks
    7,675
    Thanked 0 Times in 0 Posts
    ขอบคุณครับ...

+ ตอบกลับกระทู้

ข้อมูลกระทู้

Users Browsing this Thread

ในขณะนี้มี 1 ท่านดูกระทู้อยู่. (0 สมาชิกและ 1 ผู้เยี่ยมชม)

     

กฎการโพสต์ข้อความ

  • ท่าน ไม่สามารถ ตั้งกระทู้ใหม่ได้
  • ท่าน ไม่สามารถ ตอบกระทู้ได้
  • ท่าน ไม่สามารถ แนบไฟล์ได้
  • ท่าน ไม่สามารถ แก้ไขข้อความโพสต์ได้
  • BB code สถานะ เปิด
  • Smilies สถานะ เปิด
  • [IMG] สถานะ เปิด
  • HTML สถานะ ปิด