+ ตอบกลับกระทู้
สรุปผลการค้นหา 1 ถึง 3 จากทั้งหมด 3
  1. #1
    Administrators รูปส่วนตัว Duckload.us
    สมัครเมื่อ
    Dec 2010
    โพสต์
    150,748
    Thanks
    7
    Thanked 158,009 Times in 68,986 Posts

    Lightbulb [จีน]-[* iQIYI *] My Journey to You (2023) : เหนือเมฆาชะตาลิขิต | The Complete Series (Season 1) [เสียงไทย + เสียงจีน] [บรรยายไทย , อังกฤษ , จีน] [เสียงไทย + ซับไทย From iQIYI + ซับ ASS , SRT , PGS]-WEB-DL.H.264.1080p.



    อวิ๋นเหวยซ่าน (อวี๋ซูซิน) นางเอก หนึ่งในสายลับสำนักอวี๋เฟิง ได้ปลอมตัวเป็นหญิงสาวเพื่อคัดเลือกเป็นเจ้าสาวสำนัก ตระกูลกง ตระกูลของพระเอก ภายนอกดูบอบบาง น่าทะนุถนอม แต่ความจริง เธอคือมือสังหาร เก่งวรยุทธ์และการใช้พิษ อยู่ในสำนักอวี๋เฟิง แต่ถูกมอบหมายให้มาปฏิบัติภารกิจตระกูลกง หากเธอทำสำเร็จจะได้มีอิสระภาพจากอวี๋เฟิง และจะได้ยาถอนพิษ
    กงจื่ออวี๋ (จางหลิงเฮ่อ) พระเอก คือคุณชายน้อย สำนักตระกูลกง มีพ่อเป็นเจ้าประมุขตระกูลกง ที่ถือว่าเป็นคนที่มีอำนาจและแข็งแกร่ง ส่วนพี่ชายเป็นผู้สืบทอดอำนาจต่อ หรือเรียกว่า ประมุขน้อย ส่วนพระเอกมีสิทธิ์สืบทอดอำนาจลำดับที่ 3 เป็นคนที่ไม่ชอบการแก่งแย่ง ฆ่าฟัน ใช้ชีวิตไปวัน ๆ วันไหนไม่สบายใจก็แอบหลบองครักษ์คนสนิทไปกินเหล้า นอนเล่นที่หอนางโลม แต่แล้ววันหนึ่งพ่อและพี่ชายถูกฆ่าตาย ทำให้โชคชะตาก็พลิกผันได้มาเป็นเจ้าของประมุขกง
    อวิ๋นเหวยซ่าน มีภารกิจที่ต้องทำให้สำเร็จ คือ ต้องถูกคัดเลือกเป็นฮูหยินเจ้าประมุข ซึ่งเธอจะทำได้หรือไม่ แล้วพระเอกจะสืบหาคนวางแผนฆ่าพ่อกับพี่ชายได้หรือไม่ ความรักทั้งคู่จะลงเอยอย่างไร ติดตามได้ใน เหนือเมฆาชะตาลิขิต

    Format : Matroska
    Format version : Version 4
    File size : 1.21 GiB
    Duration : 56 min 21 s
    Overall bit rate : 3 079 kb/s
    Frame rate : 25.000 FPS
    Movie name : My.Journey.to.You.2023.S01E01.1080p.iQIYI.WEB-DL.DDP5.1.x264_SkiesIT

    Video
    ID : 1
    Format : AVC
    Format/Info : Advanced Video Codec
    Format profile : [email protected]
    Format settings : CABAC / 4 Ref Frames
    Format settings, CABAC : Yes
    Format settings, Reference frames : 4 frames
    Codec ID : V_MPEG4/ISO/AVC
    Duration : 56 min 20 s
    Bit rate : 2 510 kb/s
    Width : 1 920 pixels
    Height : 1 080 pixels
    Display aspect ratio : 16:9
    Frame rate mode : Constant
    Frame rate : 25.000 FPS
    Color space : YUV
    Chroma subsampling : 4:2:0
    Bit depth : 8 bits
    Scan type : Progressive
    Bits/(Pixel*Frame) : 0.048
    Stream size : 1 011 MiB (81%)
    Title : My.Journey.to.You.2023.S01E01.1080p.iQIYI.WEB-DL.DDP5.1.x264_SkiesIT
    Writing library : x264 core 164 r3107 a8b68eb
    Encoding settings : cabac=1 / ref=3 / deblock=1:0:0 / analyse=0x3:0x113 / me=hex / subme=7 / psy=1 / psy_rd=1.00:0.00 / mixed_ref=1 / me_range=16 / chroma_me=1 / trellis=1 / 8x8dct=1 / cqm=0 / deadzone=21,11 / fast_pskip=1 / chroma_qp_offset=-2 / threads=9 / lookahead_threads=1 / sliced_threads=0 / nr=0 / decimate=1 / interlaced=0 / bluray_compat=0 / constrained_intra=0 / bframes=3 / b_pyramid=2 / b_adapt=1 / b_bias=0 / direct=1 / weightb=1 / open_gop=0 / weightp=2 / keyint=250 / keyint_min=25 / scenecut=40 / intra_refresh=0 / rc_lookahead=40 / rc=2pass / mbtree=1 / bitrate=2510 / ratetol=1.0 / qcomp=0.60 / qpmin=0 / qpmax=69 / qpstep=4 / cplxblur=20.0 / qblur=0.5 / ip_ratio=1.40 / aq=1:1.00
    Language : Chinese
    Default : Yes
    Forced : No
    Color range : Limited

    Audio #1
    ID : 2
    Format : E-AC-3
    Format/Info : Enhanced AC-3
    Commercial name : Dolby Digital Plus
    Codec ID : A_EAC3
    Duration : 56 min 20 s
    Bit rate mode : Constant
    Bit rate : 256 kb/s
    Channel(s) : 6 channels
    Channel layout : L R C LFE Ls Rs
    Sampling rate : 48.0 kHz
    Frame rate : 31.250 FPS (1536 SPF)
    Compression mode : Lossy
    Delay relative to video : -40 ms
    Stream size : 103 MiB (8%)
    Language : Chinese (CH)
    Service kind : Complete Main
    Default : No
    Forced : No

    Audio #2
    ID : 3
    Format : E-AC-3
    Format/Info : Enhanced AC-3
    Commercial name : Dolby Digital Plus
    Codec ID : A_EAC3
    Duration : 56 min 21 s
    Bit rate mode : Constant
    Bit rate : 192 kb/s
    Channel(s) : 2 channels
    Channel layout : L R
    Sampling rate : 44.1 kHz
    Frame rate : 28.711 FPS (1536 SPF)
    Compression mode : Lossy
    Delay relative to video : -40 ms
    Stream size : 77.4 MiB (6%)
    Language : Thai
    Service kind : Complete Main
    Default : Yes
    Forced : No

    Text #1
    ID : 4
    Format : UTF-8
    Codec ID : S_TEXT/UTF8
    Codec ID/Info : UTF-8 Plain Text
    Duration : 51 min 36 s
    Bit rate : 40 b/s
    Frame rate : 0.260 FPS
    Count of elements : 805
    Stream size : 15.3 KiB (0%)
    Title : (Simplified)
    Language : Chinese
    Default : No
    Forced : No

    Text #2
    ID : 5
    Format : UTF-8
    Codec ID : S_TEXT/UTF8
    Codec ID/Info : UTF-8 Plain Text
    Duration : 51 min 36 s
    Bit rate : 40 b/s
    Frame rate : 0.260 FPS
    Count of elements : 805
    Stream size : 15.3 KiB (0%)
    Title : (Traditional)
    Language : Chinese
    Default : No
    Forced : No

    Text #3
    ID : 6
    Format : UTF-8
    Codec ID : S_TEXT/UTF8
    Codec ID/Info : UTF-8 Plain Text
    Duration : 51 min 42 s
    Bit rate : 54 b/s
    Frame rate : 0.261 FPS
    Count of elements : 811
    Stream size : 20.8 KiB (0%)
    Language : English
    Default : No
    Forced : No

    Text #4
    ID : 7
    Format : ASS
    Codec ID : S_TEXT/ASS
    Codec ID/Info : Advanced Sub Station Alpha
    Duration : 51 min 42 s
    Bit rate : 193 b/s
    Frame rate : 0.261 FPS
    Count of elements : 811
    Compression mode : Lossless
    Stream size : 73.4 KiB (0%)
    Title : ASS From iQIYI
    Language : Thai
    Default : No
    Forced : No

    Text #5
    ID : 8
    Format : UTF-8
    Codec ID : S_TEXT/UTF8
    Codec ID/Info : UTF-8 Plain Text
    Duration : 51 min 42 s
    Bit rate : 148 b/s
    Frame rate : 0.261 FPS
    Count of elements : 811
    Stream size : 56.1 KiB (0%)
    Title : SRT From iQIYI
    Language : Thai
    Default : Yes
    Forced : No

    Text #6
    ID : 9
    Format : PGS
    Muxing mode : zlib
    Codec ID : S_HDMV/PGS
    Codec ID/Info : Picture based subtitle format used on BDs/HD-DVDs
    Duration : 51 min 42 s
    Bit rate : 51.0 kb/s
    Frame rate : 0.523 FPS
    Count of elements : 1624
    Stream size : 18.9 MiB (2%)
    Title : Angsana PGS
    Language : Thai
    Default : No
    Forced : No

    Text #7
    ID : 10
    Format : PGS
    Muxing mode : zlib
    Codec ID : S_HDMV/PGS
    Codec ID/Info : Picture based subtitle format used on BDs/HD-DVDs
    Duration : 51 min 42 s
    Bit rate : 51.0 kb/s
    Frame rate : 0.523 FPS
    Count of elements : 1624
    Stream size : 18.9 MiB (2%)
    Title : Angsana PGS [Yellow]
    Language : Thai
    Default : No
    Forced : No

    Text #8
    ID : 11
    Format : PGS
    Muxing mode : zlib
    Codec ID : S_HDMV/PGS
    Codec ID/Info : Picture based subtitle format used on BDs/HD-DVDs
    Duration : 51 min 42 s
    Bit rate : 48.2 kb/s
    Frame rate : 0.523 FPS
    Count of elements : 1624
    Stream size : 17.8 MiB (1%)
    Title : Cordia New PGS
    Language : Thai
    Default : No
    Forced : No

    Text #9
    ID : 12
    Format : PGS
    Muxing mode : zlib
    Codec ID : S_HDMV/PGS
    Codec ID/Info : Picture based subtitle format used on BDs/HD-DVDs
    Duration : 51 min 42 s
    Bit rate : 48.2 kb/s
    Frame rate : 0.523 FPS
    Count of elements : 1624
    Stream size : 17.8 MiB (1%)
    Title : Cordia New PGS [Yellow]
    Language : Thai
    Default : No
    Forced : No

    Text #10
    ID : 13
    Format : PGS
    Muxing mode : zlib
    Codec ID : S_HDMV/PGS
    Codec ID/Info : Picture based subtitle format used on BDs/HD-DVDs
    Duration : 51 min 42 s
    Bit rate : 47.7 kb/s
    Frame rate : 0.523 FPS
    Count of elements : 1624
    Stream size : 17.6 MiB (1%)
    Title : Droid Sans PGS
    Language : Thai
    Default : No
    Forced : No

    Text #11
    ID : 14
    Format : PGS
    Muxing mode : zlib
    Codec ID : S_HDMV/PGS
    Codec ID/Info : Picture based subtitle format used on BDs/HD-DVDs
    Duration : 51 min 42 s
    Bit rate : 47.7 kb/s
    Frame rate : 0.523 FPS
    Count of elements : 1624
    Stream size : 17.6 MiB (1%)
    Title : Droid Sans PGS [Yellow]
    Language : Thai
    Default : No
    Forced : No














    My.Journey.to.You.2023.S01E24.1080p.iQIYI.WEB-DL.DDP5.1.x264_SkiesIT.mkv
    http://www.filecondo.com/dl.php?f=dc79d91QVY87

    My.Journey.to.You.2023.S01E23.1080p.iQIYI.WEB-DL.DDP5.1.x264_SkiesIT.mkv
    http://www.filecondo.com/dl.php?f=Aeacb41QVY7b

    My.Journey.to.You.2023.S01E22.1080p.iQIYI.WEB-DL.DDP5.1.x264_SkiesIT.mkv
    http://www.filecondo.com/dl.php?f=4b387a1QVY6d

    My.Journey.to.You.2023.S01E21.1080p.iQIYI.WEB-DL.DDP5.1.x264_SkiesIT.mkv
    http://www.filecondo.com/dl.php?f=r2ef661QVY5g

    My.Journey.to.You.2023.S01E20.1080p.iQIYI.WEB-DL.DDP5.1.x264_SkiesIT.mkv
    http://www.filecondo.com/dl.php?f=U7d9791QVY4j

    My.Journey.to.You.2023.S01E19.1080p.iQIYI.WEB-DL.DDP5.1.x264_SkiesIT.mkv
    http://www.filecondo.com/dl.php?f=F1f4981QVY3k

    My.Journey.to.You.2023.S01E18.1080p.iQIYI.WEB-DL.DDP5.1.x264_SkiesIT.mkv
    http://www.filecondo.com/dl.php?f=zbb9191QVY2m

    My.Journey.to.You.2023.S01E17.1080p.iQIYI.WEB-DL.DDP5.1.x264_SkiesIT.mkv
    http://www.filecondo.com/dl.php?f=fa13a41QVY1q

    My.Journey.to.You.2023.S01E16.1080p.iQIYI.WEB-DL.DDP5.1.x264_SkiesIT.mkv
    http://www.filecondo.com/dl.php?f=M2886a1QVY0r

    My.Journey.to.You.2023.S01E15.1080p.iQIYI.WEB-DL.DDP5.1.x264_SkiesIT.mkv
    http://www.filecondo.com/dl.php?f=Nc0fac1QVXZs

    My.Journey.to.You.2023.S01E14.1080p.iQIYI.WEB-DL.DDP5.1.x264_SkiesIT.mkv
    http://www.filecondo.com/dl.php?f=kc936e1QVXYu

    My.Journey.to.You.2023.S01E13.1080p.iQIYI.WEB-DL.DDP5.1.x264_SkiesIT.mkv
    http://www.filecondo.com/dl.php?f=q174e21QVXWy

    My.Journey.to.You.2023.S01E12.1080p.iQIYI.WEB-DL.DDP5.1.x264_SkiesIT.mkv
    http://www.filecondo.com/dl.php?f=Y9b64b1QVXVA

    My.Journey.to.You.2023.S01E11.1080p.iQIYI.WEB-DL.DDP5.1.x264_SkiesIT.mkv
    http://www.filecondo.com/dl.php?f=n05dbe1QVXUC

    My.Journey.to.You.2023.S01E10.1080p.iQIYI.WEB-DL.DDP5.1.x264_SkiesIT.mkv
    http://www.filecondo.com/dl.php?f=G08c671QVXTE

    My.Journey.to.You.2023.S01E09.1080p.iQIYI.WEB-DL.DDP5.1.x264_SkiesIT.mkv
    http://www.filecondo.com/dl.php?f=e7b8d61QVXSF

    My.Journey.to.You.2023.S01E08.1080p.iQIYI.WEB-DL.DDP5.1.x264_SkiesIT.mkv
    http://www.filecondo.com/dl.php?f=q7e0c61QVXRG

    My.Journey.to.You.2023.S01E07.1080p.iQIYI.WEB-DL.DDP5.1.x264_SkiesIT.mkv
    http://www.filecondo.com/dl.php?f=K7bf701QVXQI

    My.Journey.to.You.2023.S01E06.1080p.iQIYI.WEB-DL.DDP5.1.x264_SkiesIT.mkv
    http://www.filecondo.com/dl.php?f=Ve80d71QVXPM

    My.Journey.to.You.2023.S01E05.1080p.iQIYI.WEB-DL.DDP5.1.x264_SkiesIT.mkv
    http://www.filecondo.com/dl.php?f=M32f631QVXOO

    My.Journey.to.You.2023.S01E04.1080p.iQIYI.WEB-DL.DDP5.1.x264_SkiesIT.mkv
    http://www.filecondo.com/dl.php?f=r022461QVXNQ

    My.Journey.to.You.2023.S01E03.1080p.iQIYI.WEB-DL.DDP5.1.x264_SkiesIT.mkv
    http://www.filecondo.com/dl.php?f=Jc94701QVXMR

    My.Journey.to.You.2023.S01E02.1080p.iQIYI.WEB-DL.DDP5.1.x264_SkiesIT.mkv
    http://www.filecondo.com/dl.php?f=B25b301QVXLS

    My.Journey.to.You.2023.S01E01.1080p.iQIYI.WEB-DL.DDP5.1.x264_SkiesIT.mkv
    http://www.filecondo.com/dl.php?f=4bfb841QVXKV

  2. The Following User Says Thank You to Duckload.us For This Useful Post:

    Tellmon (11-24-2023)

  3. #2
    Senior Member
    สมัครเมื่อ
    Aug 2015
    โพสต์
    161
    Thanks
    0
    Thanked 0 Times in 0 Posts
    ขอบคุณค่ะ

  4. #3
    Senior Member
    สมัครเมื่อ
    Aug 2012
    โพสต์
    589
    Thanks
    0
    Thanked 0 Times in 0 Posts
    ขอบคุณมากครับ แต่ไม่ได้พากย์ไทยนะครับ เป็น Soundtrack ครับ

+ ตอบกลับกระทู้

ข้อมูลกระทู้

Users Browsing this Thread

ในขณะนี้มี 1 ท่านดูกระทู้อยู่. (0 สมาชิกและ 1 ผู้เยี่ยมชม)

     

กฎการโพสต์ข้อความ

  • ท่าน ไม่สามารถ ตั้งกระทู้ใหม่ได้
  • ท่าน ไม่สามารถ ตอบกระทู้ได้
  • ท่าน ไม่สามารถ แนบไฟล์ได้
  • ท่าน ไม่สามารถ แก้ไขข้อความโพสต์ได้
  • BB code สถานะ เปิด
  • Smilies สถานะ เปิด
  • [IMG] สถานะ เปิด
  • HTML สถานะ ปิด