+ ตอบกลับกระทู้
สรุปผลการค้นหา 1 ถึง 1 จากทั้งหมด 1
  1. #1
    Administrators รูปส่วนตัว Duckload.us
    สมัครเมื่อ
    Dec 2010
    โพสต์
    152,670
    Thanks
    7
    Thanked 159,860 Times in 69,926 Posts

    Lightbulb [ฝรั่ง]-Salt 2010 สวยสังหาร-Blu-ray.AC-3.1080p. [Master]-[พากย์ไทย บรรยายไทย]



    Salt (2010) Deluxe Extended Edition สวยสังหาร [Master] [1080p]
    [เสียงไทยมาสเตอร์ 5.1 + ENG DTS ]-[บรรยายไทย+อังกฤษ] [เสียง + ซับ From BluRay MASTER : + ซับไทย PGS]

    ในฐานะเจ้าหน้าที่ CIA เอเวอลิน ซอลต์ (แองเจลิน่า โจลี่) ได้ให้คำสาบานที่จะจงรักภักดีต่อหน้าที่ เกียรติและประเทศชาติ
    แต่ความจงรักภักดีของเธอกำลังจะถูกทดสอบเมื่อมีผู้ทร ยศใส่ร้ายว่าเธอเป็นสายลับของรัสเซีย
    ซอลต์จึงต้องหลบหนี ด้วยการใช้ทักษะและประสบการณ์ทั้งหมดเท่าที่มีในฐานะ เจ้าหน้าที่สอดแนมเพื่อหลบหนีการจับกุม
    หากแต่ความพยายามที่จะพิสูจน์ความบริสุทธิ์ของเธอยิ่ งทำให้มีคนสงสัยในแรงจูงใจของเธอมากขึ้น
    ขณะที่การตามล่าหาความจริงเบื้องหลังตัวตนของเธอยังค งเดินหน้า คำถามที่ยังคงอยู่ก็คือ ซอลต์คือใคร



    General
    Format : Matroska
    Format version : Version 4 / Version 2
    File size : 4.29 GiB
    Duration : 1h 44mn
    Overall bit rate : 5 904 Kbps
    Encoded date : UTC 2015-08-27 01:42:47
    Writing application : mkvmerge v7.8.0 ('River Man') 32bit

    Video
    ID : 1
    Format : AVC
    Format/Info : Advanced Video Codec
    Format profile : [email protected]
    Format settings, CABAC : Yes
    Format settings, ReFrames : 4 frames
    Codec ID : V_MPEG4/ISO/AVC
    Duration : 1h 44mn
    Bit rate : 4 412 Kbps
    Width : 1 920 pixels
    Height : 800 pixels
    Display aspect ratio : 2.40:1
    Frame rate mode : Constant
    Frame rate : 23.976 fps
    Color space : YUV
    Chroma subsampling : 4:2:0
    Bit depth : 8 bits
    Scan type : Progressive
    Bits/(Pixel*Frame) : 0.120
    Stream size : 3.19 GiB (74%)

    Writing library : x264 core 146 r2538 121396c

    Language : English
    Default : Yes
    Forced : No

    Audio #1
    ID : 2
    Format : AC-3
    Format/Info : Audio Coding 3
    Mode extension : CM (complete main)
    Format settings, Endianness : Big
    Codec ID : A_AC3
    Duration : 1h 44mn
    Bit rate mode : Constant
    Bit rate : 640 Kbps
    Channel(s) : 6 channels
    Channel positions : Front: L C R, Side: L R, LFE
    Sampling rate : 48.0 KHz
    Bit depth : 16 bits
    Compression mode : Lossy
    Stream size : 476 MiB (11%)
    Title : AC3 BD MASTER
    Language : Thai
    Default : Yes
    Forced : Yes

    Audio #2
    ID : 3
    Format : DTS
    Format/Info : Digital Theater Systems
    Mode : 16
    Format settings, Endianness : Big
    Codec ID : A_DTS
    Duration : 1h 44mn
    Bit rate mode : Constant
    Bit rate : 755 Kbps
    Channel(s) : 6 channels
    Channel positions : Front: L C R, Side: L R, LFE
    Sampling rate : 48.0 KHz
    Bit depth : 24 bits
    Compression mode : Lossy
    Stream size : 562 MiB (13%)
    Title : DTS siambit.me
    Language : English
    Default : No
    Forced : No

    Text #1
    ID : 4
    Format : VobSub
    Codec ID : S_VOBSUB
    Codec ID/Info : Picture based subtitle format used on DVDs
    Title : 1080P
    Language : Thai
    Default : Yes
    Forced : Yes

    Text #2
    ID : 5
    Format : VobSub
    Codec ID : S_VOBSUB
    Codec ID/Info : Picture based subtitle format used on DVDs
    Title : 1080P YELLOW
    Language : Thai

    Text #3
    ID : 6
    Format : VobSub
    Codec ID : S_VOBSUB
    Codec ID/Info : Picture based subtitle format used on DVDs
    Title : 1080P UNDER
    Language : Thai


    Text #4
    ID : 7
    Format : VobSub
    Codec ID : S_VOBSUB
    Codec ID/Info : Picture based subtitle format used on DVDs
    Title : 480P
    Language : Thai


    Text #5
    ID : 8
    Format : PGS
    Codec ID : S_HDMV/PGS
    Codec ID/Info : Picture based subtitle format used on BDs/HD-DVDs
    Title : BD MASTER
    Language : Thai

    Text #6
    ID : 9
    Format : PGS
    Codec ID : S_HDMV/PGS
    Codec ID/Info : Picture based subtitle format used on BDs/HD-DVDs
    Title : BD UNDER
    Language : Thai

    Text #7
    ID : 10
    Format : PGS
    Codec ID : S_HDMV/PGS
    Codec ID/Info : Picture based subtitle format used on BDs/HD-DVDs
    Title : BD MASTER
    Language : English

    Salt_(2010)_สวยสังหาร.mkv
    http://www.filecondo.com/dl.php?f=H6bb531R3fFl

    4.61 GB

  2. The Following 2 Users Say Thank You to Duckload.us For This Useful Post:

    sasithep (11-24-2023), scsyn (11-19-2023)

+ ตอบกลับกระทู้

ข้อมูลกระทู้

Users Browsing this Thread

ในขณะนี้มี 1 ท่านดูกระทู้อยู่. (0 สมาชิกและ 1 ผู้เยี่ยมชม)

     

กฎการโพสต์ข้อความ

  • ท่าน ไม่สามารถ ตั้งกระทู้ใหม่ได้
  • ท่าน ไม่สามารถ ตอบกระทู้ได้
  • ท่าน ไม่สามารถ แนบไฟล์ได้
  • ท่าน ไม่สามารถ แก้ไขข้อความโพสต์ได้
  • BB code สถานะ เปิด
  • Smilies สถานะ เปิด
  • [IMG] สถานะ เปิด
  • HTML สถานะ ปิด