+ ตอบกลับกระทู้
สรุปผลการค้นหา 1 ถึง 4 จากทั้งหมด 4
  1. #1
    Administrators รูปส่วนตัว Duckload.us
    สมัครเมื่อ
    Dec 2010
    โพสต์
    152,111
    Thanks
    7
    Thanked 159,085 Times in 69,585 Posts

    Lightbulb [ฝรั่ง]-Insidious 4-Movie Collection (2010-2018) [เสียงอังกฤษ DTS + พากย์ไทย 5.1 แท้] [บรรยาย: ไทย-อังกฤษ Master]-Blu-ray.H.264.1080p. [Modified]



    ┌ ┑
    https://bpicc.com/i/a3TGRo
    https://bpicc.com/i/a3Ttgd
    https://bpicc.com/i/a3TV9w ➤ Screen shot จากตัวหนังนะครับ
    https://bpicc.com/i/a3TJT1
    https://bpicc.com/i/a3Tq44
    └ ┙

    https://bpicc.com/i/a3Qg8P

    รายละเอียดเรื่องย่อ/Synopsis
    จากฝีมือการกำกับของ เจมส์ แวน และเขียนบทโดย ลีห์ แวนเนลล์ สองคู่หูผู้ให้กำเนิด Saw รวมพลังกับทีมผู้สร้าง Paranormal Activity 1 และ 2 ที่จะพาคุณเข้าไปในดินแดนที่เรียกว่า เดอะ เฟอร์เธอร์ ที่ยิ่งคุณก้าวล่วงล้ำเข้าไป ความชั่วร้ายก็ยิ่งมีอำนาจมากขึ้น

    จอร์ช (แพทริค วิลสัน) และ เรไน (โรส เบิร์น) คือคู่สามี-ภรรยาที่ใช้ชีวิตอยู่กับลูกๆ ทั้งสาม แต่เมื่อลูกชายตกอยู่ในอาการโคม่าโดยไม่ทราบสาเหตุ ทั้งสองก็สัมผัสได้ถึงเหตุการณ์เหนือธรรมชาติในบ้านห ลังที่อาศัยอยู่ และพบว่า ร่างของลูกชายเป็นแหล่งพลังงานของความชั่วร้าย ทั้งสองต้องทำทุกวิถีทางเพื่อไม่ให้วิญญาณของลูกชายต ิดอยู่ในดินแดนที่เรียกว่า เดอะ เฟอร์เธอร์ ไปตลอดกาล

    General
    Complete name : {Super Mini-HD 1080p HQ} Insidious 2010 BluRay 1080p DTS x264.mkv
    Format : Matroska
    File size : 3.97 GiB
    Duration : 1h 43mn
    Overall bit rate : 5 494 Kbps
    Encoded date : UTC 2015-10-12 14:08:53
    Writing application : mkvmerge v7.9.0 ( Birds ) 64bit
    Writing library : libebml v1.3.1 + libmatroska v1.4.2

    Video
    ID : 1
    Format : AVC
    Format/Info : Advanced Video Codec
    Format profile : [email protected]
    Format settings, CABAC : Yes
    Format settings, ReFrames : 5 frames
    Codec ID : V_MPEG4/ISO/AVC
    Duration : 1h 43mn
    Bit rate mode : Variable
    Bit rate : 4 200 Kbps
    Maximum bit rate : 100.0 Mbps
    Width : 1 920 pixels
    Height : 792 pixels
    Display aspect ratio : 2.40:1
    Frame rate mode : Variable
    Frame rate : 23.976 fps
    Color space : YUV
    Chroma subsampling : 4:2:0
    Bit depth : 8 bits
    Scan type : Progressive
    Bits/(Pixel*Frame) : 0.115
    Stream size : 3.02 GiB (76%)
    Title : {Super Mini-HD 1080p HQ} Insidious 2010 BluRay 1080p DTS x264-mlove
    Writing library : x264 core 120 r2145M 748fe16
    Encoding settings : cabac=1 / ref=5 / deblock=1:0:0 / analyse=0x3:0x133 / me=umh / subme=11 / psy=1 / psy_rd=1.00:0.15 / mixed_ref=1 / me_range=64 / chroma_me=1 / trellis=2 / 8x8dct=1 / cqm=0 / deadzone=21,11 / fast_pskip=0 / chroma_qp_offset=-3 / threads=8 / sliced_threads=0 / nr=0 / decimate=1 / interlaced=0 / bluray_compat=0 / constrained_intra=0 / bframes=5 / b_pyramid=2 / b_adapt=2 / b_bias=0 / direct=3 / weightb=1 / open_gop=0 / weightp=2 / keyint=230 / keyint_min=23 / scenecut=40 / intra_refresh=0 / rc_lookahead=120 / rc=2pass / mbtree=1 / bitrate=4200 / ratetol=1.0 / qcomp=0.60 / qpmin=0 / qpmax=69 / qpstep=4 / cplxblur=20.0 / qblur=0.5 / vbv_maxrate=99999 / vbv_bufsize=99999 / nal_hrd=vbr / ip_ratio=1.40 / aq=1:1.00

    Audio 1
    ID : 2
    Format : DTS
    Format/Info : Digital Theater Systems
    Codec ID : A_DTS
    Duration : 1h 43mn
    Bit rate mode : Constant
    Bit rate : 755 Kbps
    Channel(s) : 6 channels
    Channel positions : Front: L C R, Side: L R, LFE
    Sampling rate : 48.0 KHz
    Bit depth : 24 bits
    Compression mode : Lossy
    Stream size : 558 MiB (14%)
    Title : [ENGLISH DTS FROM BLU-RAY MASTER]
    Language : English

    Audio 2
    ID : 3
    Format : AC-3
    Format/Info : Audio Coding 3
    Mode extension : CM (complete main)
    Codec ID : A_AC3
    Duration : 1h 43mn
    Bit rate mode : Constant
    Bit rate : 448 Kbps
    Channel(s) : 6 channels
    Channel positions : Front: L C R, Side: L R, LFE
    Sampling rate : 48.0 KHz
    Bit depth : 16 bits
    Compression mode : Lossy
    Stream size : 331 MiB (8%)
    Title : [THAI AC3 FROM DVD MASTER]
    Language : Thai

    Text 1
    ID : 4
    Format : VobSub
    Codec ID : S_VOBSUB
    Codec ID/Info : The same subtitle format used on DVDs
    Title : [SUB THAI 480P FROM DVD MASTER]
    Language : Thai

    Text 2
    ID : 5
    Format : VobSub
    Codec ID : S_VOBSUB
    Codec ID/Info : The same subtitle format used on DVDs
    Title : [SUB THAI 1080P FROM DVD MASTER] TH Angsana
    Language : Thai

    Text 3
    ID : 6
    Format : VobSub
    Codec ID : S_VOBSUB
    Codec ID/Info : The same subtitle format used on DVDs
    Title : [SUB THAI 1080P FROM DVD MASTER] TH Sarabun
    Language : Thai

    Text 4
    ID : 7
    Format : PGS
    Codec ID : S_HDMV/PGS
    Codec ID/Info : The same subtitle format used on BDs/HD-DVDs
    Title : THAI PGS Angsana UPC
    Language : Thai

    Text 5
    ID : 8
    Format : PGS
    Codec ID : S_HDMV/PGS
    Codec ID/Info : The same subtitle format used on BDs/HD-DVDs
    Title : THAI PGS Angsana UPC UNDER
    Language : Thai

    Text 6
    ID : 9
    Format : PGS
    Codec ID : S_HDMV/PGS
    Codec ID/Info : The same subtitle format used on BDs/HD-DVDs
    Title : THAI PGS TH Sarabun
    Language : Thai

    Text 7
    ID : 10
    Format : PGS
    Codec ID : S_HDMV/PGS
    Codec ID/Info : The same subtitle format used on BDs/HD-DVDs
    Title : THAI PGS TH Sarabun UNDER
    Language : Thai

    Text 8
    ID : 11
    Format : PGS
    Codec ID : S_HDMV/PGS
    Codec ID/Info : The same subtitle format used on BDs/HD-DVDs
    Title : [SUB ENG PGS FROM BLU-RAY]
    Language : English

    https://bpicc.com/i/a3T9gV

    ***** Insidious: Chapter 2 : วิญญาณยังตามติด *****

    เนื้อเรื่องย่อ
    Insidious: Chapter 2 ของผกก. เจมส์ แวน จากภาคแรก ที่หวนคืนพร้อมนักแสดงยกเซ็ตอย่าง โรส เบิร์น และ แพทริค วิลสัน รวมถึง ไท ซิมกินส์ และ บาบร่า เฮอร์ซี่ย์ โดยเรื่องราวจะต่อเนื่องมาจาก Insidious ภาคแรกในปี 2011 ที่ปีศาจร้ายยังคงตามหลอกหลอนครอบครัวแลมเบิร์ต พวกเขาพยายามค้นหาว่าอะไรคือความลึกลับของการเชื่อมต ่อกับโลกวิญญาณ ที่ตัวหนังจะลงลึกไปถึงความลับวัยเด็กของครอบครัว แลมเบิร์ต ว่าเรื่องทั้งหมดมันเกิดมาจากอะไรกันแน่

    General
    Complete name : {Super Mini-HD 1080p HQ} Insidious Chapter 2 2013 BluRay 1080p DTS x264.mkv
    Format : Matroska
    File size : 4.23 GiB
    Duration : 1h 45mn
    Overall bit rate : 5 722 Kbps
    Encoded date : UTC 2015-10-12 15:14:45
    Writing application : mkvmerge v7.9.0 ( Birds ) 64bit
    Writing library : libebml v1.3.1 + libmatroska v1.4.2

    Video
    ID : 1
    Format : AVC
    Format/Info : Advanced Video Codec
    Format profile : [email protected]
    Format settings, CABAC : Yes
    Format settings, ReFrames : 5 frames
    Codec ID : V_MPEG4/ISO/AVC
    Duration : 1h 45mn
    Bit rate mode : Variable
    Bit rate : 4 200 Kbps
    Maximum bit rate : 100.0 Mbps
    Width : 1 920 pixels
    Height : 800 pixels
    Display aspect ratio : 2.40:1
    Frame rate mode : Variable
    Frame rate : 23.976 fps
    Color space : YUV
    Chroma subsampling : 4:2:0
    Bit depth : 8 bits
    Scan type : Progressive
    Bits/(Pixel*Frame) : 0.114
    Stream size : 3.11 GiB (74%)
    Title : {Super Mini-HD 1080p HQ} Insidious Chapter 2 2013 BluRay 1080p DTS x264-mlove
    Writing library : x264 core 120 r2145M 748fe16
    Encoding settings : cabac=1 / ref=5 / deblock=1:0:0 / analyse=0x3:0x133 / me=umh / subme=11 / psy=1 / psy_rd=1.00:0.15 / mixed_ref=1 / me_range=64 / chroma_me=1 / trellis=2 / 8x8dct=1 / cqm=0 / deadzone=21,11 / fast_pskip=0 / chroma_qp_offset=-3 / threads=8 / sliced_threads=0 / nr=0 / decimate=1 / interlaced=0 / bluray_compat=0 / constrained_intra=0 / bframes=5 / b_pyramid=2 / b_adapt=2 / b_bias=0 / direct=3 / weightb=1 / open_gop=0 / weightp=2 / keyint=230 / keyint_min=23 / scenecut=40 / intra_refresh=0 / rc_lookahead=120 / rc=2pass / mbtree=1 / bitrate=4200 / ratetol=1.0 / qcomp=0.60 / qpmin=0 / qpmax=69 / qpstep=4 / cplxblur=20.0 / qblur=0.5 / vbv_maxrate=99999 / vbv_bufsize=99999 / nal_hrd=vbr / ip_ratio=1.40 / aq=1:1.00

    Audio 1
    ID : 2
    Format : DTS
    Format/Info : Digital Theater Systems
    Codec ID : A_DTS
    Duration : 1h 45mn
    Bit rate mode : Constant
    Bit rate : 755 Kbps
    Channel(s) : 6 channels
    Channel positions : Front: L C R, Side: L R, LFE
    Sampling rate : 48.0 KHz
    Bit depth : 24 bits
    Compression mode : Lossy
    Stream size : 571 MiB (13%)
    Title : [ENGLISH DTS FROM BLU-RAY MASTER]
    Language : English

    Audio 2
    ID : 3
    Format : AC-3
    Format/Info : Audio Coding 3
    Mode extension : CM (complete main)
    Codec ID : A_AC3
    Duration : 1h 45mn
    Bit rate mode : Constant
    Bit rate : 640 Kbps
    Channel(s) : 6 channels
    Channel positions : Front: L C R, Side: L R, LFE
    Sampling rate : 48.0 KHz
    Bit depth : 16 bits
    Compression mode : Lossy
    Stream size : 484 MiB (11%)
    Title : [THAI AC3 FROM BLU-RAY MASTER]
    Language : Thai

    Text 1
    ID : 4
    Format : VobSub
    Codec ID : S_VOBSUB
    Codec ID/Info : The same subtitle format used on DVDs
    Title : [SUB THAI 480P FROM DVD MASTER]
    Language : Thai

    Text 2
    ID : 5
    Format : VobSub
    Codec ID : S_VOBSUB
    Codec ID/Info : The same subtitle format used on DVDs
    Title : [SUB THAI 1080P FROM DVD MASTER] TH Angsana UPC
    Language : Thai

    Text 3
    ID : 6
    Format : VobSub
    Codec ID : S_VOBSUB
    Codec ID/Info : The same subtitle format used on DVDs
    Title : [SUB THAI 1080P FROM DVD MASTER] TH Sarabun
    Language : Thai

    Text 4
    ID : 7
    Format : PGS
    Codec ID : S_HDMV/PGS
    Codec ID/Info : The same subtitle format used on BDs/HD-DVDs
    Title : THAI PGS Angsana UPC
    Language : Thai

    Text 5
    ID : 8
    Format : PGS
    Codec ID : S_HDMV/PGS
    Codec ID/Info : The same subtitle format used on BDs/HD-DVDs
    Title : THAI PGS Angsana UPC UNDER
    Language : Thai

    Text 6
    ID : 9
    Format : PGS
    Codec ID : S_HDMV/PGS
    Codec ID/Info : The same subtitle format used on BDs/HD-DVDs
    Title : THAI PGS TH Sarabun
    Language : Thai

    Text 7
    ID : 10
    Format : PGS
    Codec ID : S_HDMV/PGS
    Codec ID/Info : The same subtitle format used on BDs/HD-DVDs
    Title : THAI PGS TH Sarabun UNDER
    Language : Thai

    Text 8
    ID : 11
    Format : PGS
    Codec ID : S_HDMV/PGS
    Codec ID/Info : The same subtitle format used on BDs/HD-DVDs
    Title : [SUB THAI PGS FROM BLU-RAY]
    Language : Thai

    Text 9
    ID : 12
    Format : PGS
    Codec ID : S_HDMV/PGS
    Codec ID/Info : The same subtitle format used on BDs/HD-DVDs
    Title : [SUB ENG PGS FROM BLU-RAY]
    Language : English


    https://bpicc.com/i/a3T12b

    ***** Insidious: Chapter 3 : วิญญาณตามติด *****

    เนื้อเรื่องย่อ
    ภาพยนตร์สยองขวัญภาคต่อที่คราวนี้ขอเล่าย้อนกลับไปก่ อนเกิดเหตุการณ์สุดประหลาดกับบ้านแลมเบิร์ต Insidious Chapter 3 นำทีมโดยเอลิส เรนเนียร์ (ลิน เชย์) หญิงร่างทรงที่ได้รับการติดต่อจากเด็กสาววัยรุ่น ควินน์ เบรนเนอร์ (สเตฟานี่ สก็อตต์) ให้ช่วยสื่อสารกับแม่ของเธอที่เสียชีวิต แต่ด้วยอดีตอันน่าเศร้าของเอลิซกลับทำให้เธอลังเลที่ จะช่วยเหลือเด็กสาวแม้ว่าเด็กสาวผู้นี้จะกำลังถูกวิญ ญาณร้ายเฝ้าครอบงำและจ้องเอาชีวิตอยู่ก็ตาม! แต่แล้วเมื่อ มัน ทำร้ายควินน์มากขึ้น พ่อของเธอจึงร้องขอความช่วยเหลือจากเอลิซอีกครั้ง การเดินทางของเอลิสและเหล่าลูกศิษย์ในครั้งนี้จะพาเร าไปไกลและลึกกว่าเดิม สู่ห้วงรติกาลอันดำมืดที่จะเผยร่างของปีศาจจอมพลังที ่กระหายวิญญาณของมนุษย์เป็นที่สุด!

    General
    Complete name : {Super Mini-HD 1080p HQ} Insidious Chapter 3 2015 BluRay 1080p DTS x264.mkv
    Format : Matroska
    File size : 4.10 GiB
    Duration : 1h 37mn
    Overall bit rate : 6 033 Kbps
    Encoded date : UTC 2015-10-14 09:46:28
    Writing application : mkvmerge v7.9.0 ( Birds ) 32bit
    Writing library : libebml v1.3.1 + libmatroska v1.4.2

    Video
    ID : 1
    Format : AVC
    Format/Info : Advanced Video Codec
    Format profile : [email protected]
    Format settings, CABAC : Yes
    Format settings, ReFrames : 5 frames
    Codec ID : V_MPEG4/ISO/AVC
    Duration : 1h 37mn
    Bit rate mode : Variable
    Bit rate : 4 500 Kbps
    Maximum bit rate : 100.0 Mbps
    Width : 1 920 pixels
    Height : 800 pixels
    Display aspect ratio : 2.40:1
    Frame rate mode : Variable
    Frame rate : 23.976 fps
    Color space : YUV
    Chroma subsampling : 4:2:0
    Bit depth : 8 bits
    Scan type : Progressive
    Bits/(Pixel*Frame) : 0.122
    Stream size : 3.07 GiB (75%)
    Title : {Super Mini-HD 1080p HQ} Insidious Chapter 3 2015 BluRay 1080p DTS x264-mlove
    Writing library : x264 core 120 r2145M 748fe16
    Encoding settings : cabac=1 / ref=5 / deblock=1:0:0 / analyse=0x3:0x133 / me=umh / subme=11 / psy=1 / psy_rd=1.00:0.15 / mixed_ref=1 / me_range=64 / chroma_me=1 / trellis=2 / 8x8dct=1 / cqm=0 / deadzone=21,11 / fast_pskip=0 / chroma_qp_offset=-3 / threads=8 / sliced_threads=0 / nr=0 / decimate=1 / interlaced=0 / bluray_compat=0 / constrained_intra=0 / bframes=5 / b_pyramid=2 / b_adapt=2 / b_bias=0 / direct=3 / weightb=1 / open_gop=0 / weightp=2 / keyint=230 / keyint_min=23 / scenecut=40 / intra_refresh=0 / rc_lookahead=120 / rc=2pass / mbtree=1 / bitrate=4500 / ratetol=1.0 / qcomp=0.60 / qpmin=0 / qpmax=69 / qpstep=4 / cplxblur=20.0 / qblur=0.5 / vbv_maxrate=99999 / vbv_bufsize=99999 / nal_hrd=vbr / ip_ratio=1.40 / aq=1:1.00

    Audio 1
    ID : 2
    Format : DTS
    Format/Info : Digital Theater Systems
    Codec ID : A_DTS
    Duration : 1h 37mn
    Bit rate mode : Constant
    Bit rate : 755 Kbps
    Channel(s) : 6 channels
    Channel positions : Front: L C R, Side: L R, LFE
    Sampling rate : 48.0 KHz
    Bit depth : 24 bits
    Compression mode : Lossy
    Stream size : 526 MiB (13%)
    Title : [ENGLISH DTS FROM BLU-RAY MASTER]
    Language : English

    Audio 2
    ID : 3
    Format : AC-3
    Format/Info : Audio Coding 3
    Mode extension : CM (complete main)
    Codec ID : A_AC3
    Duration : 1h 37mn
    Bit rate mode : Constant
    Bit rate : 640 Kbps
    Channel(s) : 6 channels
    Channel positions : Front: L C R, Side: L R, LFE
    Sampling rate : 48.0 KHz
    Bit depth : 16 bits
    Compression mode : Lossy
    Stream size : 446 MiB (11%)
    Title : [THAI AC3 FROM BLU-RAY MASTER]
    Language : Thai

    Text 1
    ID : 4
    Format : VobSub
    Codec ID : S_VOBSUB
    Codec ID/Info : The same subtitle format used on DVDs
    Title : [SUB THAI 480P FROM DVD MASTER]
    Language : Thai

    Text 2
    ID : 5
    Format : VobSub
    Codec ID : S_VOBSUB
    Codec ID/Info : The same subtitle format used on DVDs
    Title : [SUB THAI 1080P FROM DVD MASTER] TH Angsana UPC
    Language : Thai

    Text 3
    ID : 6
    Format : VobSub
    Codec ID : S_VOBSUB
    Codec ID/Info : The same subtitle format used on DVDs
    Title : [SUB THAI 1080P FROM DVD MASTER] TH Sarabun
    Language : Thai

    Text 4
    ID : 7
    Format : PGS
    Codec ID : S_HDMV/PGS
    Codec ID/Info : The same subtitle format used on BDs/HD-DVDs
    Title : THAI PGS Angsana UPC
    Language : Thai

    Text 5
    ID : 8
    Format : PGS
    Codec ID : S_HDMV/PGS
    Codec ID/Info : The same subtitle format used on BDs/HD-DVDs
    Title : THAI PGS Angsana UPC UNDER
    Language : Thai

    Text 6
    ID : 9
    Format : PGS
    Codec ID : S_HDMV/PGS
    Codec ID/Info : The same subtitle format used on BDs/HD-DVDs
    Title : THAI PGS TH Sarabun
    Language : Thai

    Text 7
    ID : 10
    Format : PGS
    Codec ID : S_HDMV/PGS
    Codec ID/Info : The same subtitle format used on BDs/HD-DVDs
    Title : THAI PGS TH Sarabun UNDER
    Language : Thai

    Text 8
    ID : 11
    Format : PGS
    Codec ID : S_HDMV/PGS
    Codec ID/Info : The same subtitle format used on BDs/HD-DVDs
    Title : [SUB THAI PGS FROM BLU-RAY]
    Language : Thai

    Text 9
    ID : 12
    Format : PGS
    Codec ID : S_HDMV/PGS
    Codec ID/Info : The same subtitle format used on BDs/HD-DVDs
    Title : [SUB ENG PGS FROM BLU-RAY]
    Language : English

    https://bpicc.com/i/a3T59t

    Insidious 4 : The Last Key | วิญญาณตามติด: กุญแจผีบอก ในช่วงเวลาเมื่อหลายปี ซึ่งนั่นคือก่อนเหตุการณ์จากภาพยนตร์ 3 ภาค ก่อนหน้านี้
    อดีตของ ดร.เอลีส (ลิน เชย์) ตั้งแต่ช่วงวัยเด็ก วัยสาว รวมไปถึงการดิ้นรนต่อสู้กับปีศาจร้ายที่มันโผล่ขึ้นม าจากนรกเพื่อช่วยเหลือผู้อื่น
    ในครั้งนี้การต่อสู้กับวิญญาณชั่ว เอลีส ได้ถอดจิตไปในดินแดนหลังความตาย ที่นั่นคือที่ไหน ที่ ๆ เขาเรียกกันว่ามันคือส่วนที่ลึกสุดใจ
    ที่นั่นต้องใช้ กุญแจ ในการเปิดโลกหลังความตายที่ลึกที่สุด ที่ ๆ มีปีศาจร้ายเฝ้าหลอกหลอนอยู่ โลกหลังความตายของภาพยนตร์
    จะมาในรูปแบบไหน ห้องแคบ ๆ มุมใดมุมหนึ่งที่แสงแทบจะไม่รอดผ่านได้ ส่วนใดส่วนหนึ่งของบ้าน
    ในภาคนี้เอลีสได้เดินนำพาเราเข้าไปสู่ เรือนจำ ที่มืดดำ อับ รกร้าง ว่างเปล่า แต่สุดแสนขนหัวลุก!!!

    Insidious_The_Last_Key_4_2018_1080p_BrRip_DTS_x264 .mkv
    http://www.filecondo.com/dl.php?f=ld3f651R4eOJ

    Insidious_Chapter_3_2015_BluRay_1080p_DTS_x264.mkv
    http://www.filecondo.com/dl.php?f=9f82c31R4eNL

    Insidious_Chapter_2_2013_BluRay_1080p_DTS_x264.mkv
    http://www.filecondo.com/dl.php?f=Ccb4321R4eMO

    Insidious_2010_BluRay_1080p_DTS_x264.mkv
    http://www.filecondo.com/dl.php?f=k651af1R4eLP

  2. The Following User Says Thank You to Duckload.us For This Useful Post:

    scsyn (11-19-2023)

  3. #2
    Senior Member
    สมัครเมื่อ
    Feb 2017
    โพสต์
    157
    Thanks
    0
    Thanked 0 Times in 0 Posts

    ขอบคุณมากกกกกกกก ครับ

    ขอบคุณมากกกกกกกก ครับ

  4. #3
    Junior Member
    สมัครเมื่อ
    Sep 2023
    โพสต์
    20
    Thanks
    26
    Thanked 0 Times in 0 Posts
    ขอบคุณมากๆนะครับแอด

  5. #4
    Junior Member รูปส่วนตัว load1part
    สมัครเมื่อ
    May 2014
    โพสต์
    28
    Thanks
    15
    Thanked 0 Times in 0 Posts
    Chapter 2 โหลดไม่ได้ เลยครับ นอกนั้นโหลดได้ปกติ

+ ตอบกลับกระทู้

ข้อมูลกระทู้

Users Browsing this Thread

ในขณะนี้มี 1 ท่านดูกระทู้อยู่. (0 สมาชิกและ 1 ผู้เยี่ยมชม)

     

กฎการโพสต์ข้อความ

  • ท่าน ไม่สามารถ ตั้งกระทู้ใหม่ได้
  • ท่าน ไม่สามารถ ตอบกระทู้ได้
  • ท่าน ไม่สามารถ แนบไฟล์ได้
  • ท่าน ไม่สามารถ แก้ไขข้อความโพสต์ได้
  • BB code สถานะ เปิด
  • Smilies สถานะ เปิด
  • [IMG] สถานะ เปิด
  • HTML สถานะ ปิด