+ ตอบกลับกระทู้
สรุปผลการค้นหา 1 ถึง 9 จากทั้งหมด 9
  1. #1
    Administrators รูปส่วนตัว Duckload.us
    สมัครเมื่อ
    Dec 2010
    โพสต์
    149,921
    Thanks
    7
    Thanked 156,922 Times in 68,567 Posts

    Lightbulb [ฝรั่ง]-[Apple TV+] Monarch Legacy of Monsters (2023) Season 1 Ep.1-10 [เสียง:อังกฤษ AC-3 5.1][บรรยาย: ไทย PGS และ ไทย/อังกฤษ SRT]-WEB-DL.H.264.1080p. [From HD-TV]-[Soundtrack บรรยายไทย]




    หลังจากการต่อสู้ครั้งยิ่งใหญ่ระหว่าง ก๊อตซิล่า และ MUTO ที่สร้างความเสียหายให้กับซานฟรานซิสโก และการเปิดเผยที่น่าตกใจว่าสัตว์ประหลาดมีอยู่จริง พี่น้องสองคนที่เดินตามรอยพ่อของพวกเขา ได้ค้นพบความเชื่อมโยงของครอบครัวของพวกเขากับองค์กร ลับที่รู้จักกันในชื่อ Monarch เบาะแสนำพวกเขาเข้าสู่โลกแห่งสัตว์ประหลาดและท้ายที่ สุดก็เชื่อมโยงไปยัง นายทหาร “ลี ชอว์” ที่มีเรื่องราวในช่วงทศวรรษ 1950 และครึ่งศตวรรษต่อมา ที่ที่ Monarch ถูกคุกคามจากสิ่งที่ชอว์รู้เรื่องราวนี้ จะเล่าสองไทม์ไลน์ สามชั่วอายุคน เผยให้เห็นความลับที่ถูกฝังไว้ จนกลายเป็นอีเว้นท์ใหญ่ของจักรวาล ​ ​ MonsterVerse


    Video
    ID : 1
    Format : AVC
    Format/Info : Advanced Video Codec
    Format profile : High@L4
    Format settings : CABAC / 4 Ref Frames
    Format settings, CABAC : Yes
    Format settings, Reference fra : 4 frames
    Codec ID : V_MPEG4/ISO/AVC
    Duration : 49 min 48 s
    Bit rate : 10.0 Mb/s
    Width : 1 920 pixels
    Height : 1 080 pixels
    Display aspect ratio : 16:9
    Frame rate mode : Constant
    Frame rate : 23.976 FPS
    Original frame rate : 47.952 (48000/1001) FPS
    Color space : YUV
    Chroma subsampling : 4:2:0
    Bit depth : 8 bits
    Scan type : Progressive
    Bits/(Pixel*Frame) : 0.201
    Stream size : 3.48 GiB (93%)
    Language : English
    Default : Yes
    Forced : No
    Color range : Limited
    Color primaries : BT.709
    Transfer characteristics : BT.709
    Matrix coefficients : BT.709

    Audio
    ID : 2
    Format : E-AC-3 JOC
    Format/Info : Enhanced AC-3 with Joint Object Coding
    Commercial name : Dolby Digital Plus with Dolby Atmos
    Codec ID : A_EAC3
    Duration : 49 min 48 s
    Bit rate mode : Constant
    Bit rate : 768 kb/s
    Channel(s) : 6 channels
    Channel layout : L R C LFE Ls Rs
    Sampling rate : 48.0 kHz
    Frame rate : 31.250 FPS (1536 SPF)
    Compression mode : Lossy
    Stream size : 274 MiB (7%)
    Title : [English-AC-3 5.1 Atmos]
    Language : English
    Service kind : Complete Main
    Default : Yes
    Forced : No
    Complexity index : 16
    Number of dynamic objects : 15
    Bed channel count : 1 channel
    Bed channel configuration : LFE

    Text #1
    ID : 3
    Format : PGS
    Muxing mode : zlib
    Codec ID : S_HDMV/PGS
    Codec ID/Info : Picture based subtitle format used on BDs/HD-DVDs
    Duration : 49 min 13 s
    Bit rate : 47.6 kb/s
    Count of elements : 1100
    Stream size : 16.8 MiB (0%)
    Title : [Thai Apple TV PGS]
    Language : Thai
    Default : Yes
    Forced : No

    Text #2
    ID : 4
    Format : UTF-8
    Codec ID : S_TEXT/UTF8
    Codec ID/Info : UTF-8 Plain Text
    Duration : 49 min 13 s
    Bit rate : 117 b/s
    Count of elements : 550
    Stream size : 42.2 KiB (0%)
    Title : Thai
    Language : Thai
    Default : No
    Forced : No

    Text #3
    ID : 5
    Format : UTF-8
    Codec ID : S_TEXT/UTF8
    Codec ID/Info : UTF-8 Plain Text
    Duration : 40 min 58 s
    Bit rate : 5 b/s
    Count of elements : 71
    Stream size : 1.71 KiB (0%)
    Title : English [Forced]
    Language : English
    Default : No
    Forced : No

    Text #4
    ID : 6
    Format : UTF-8
    Codec ID : S_TEXT/UTF8
    Codec ID/Info : UTF-8 Plain Text
    Duration : 47 min 42 s
    Bit rate : 48 b/s
    Count of elements : 533
    Stream size : 16.9 KiB (0%)
    Title : English
    Language : English
    Default : No
    Forced : No




    monarch.legacy.of.monsters.s01e10.1080p.web.h264.m kv
    http://www.filecondo.com/dl.php?f=Tc40421Rpmmk

    Monarch.Legacy.of.Monsters.S01E10.Beyond.Logic.108 0p.WEB.H264.Modified_By_mxn.mkv
    http://www.filecondo.com/dl.php?f=H7c6ff1RpkcN

    monarch.legacy.of.monsters.s01e09.1080p.web.h264.m kv
    http://www.filecondo.com/dl.php?f=D41a091RlNZK

    Monarch.Legacy.of.Monsters.S01E09.Axis.Mundi.1080p .WEB.H264.Modified_By_mxn.mkv
    http://www.filecondo.com/dl.php?f=T6b8511RlLt0

    Monarch.Legacy.of.Monsters.S01E08.Birthright.1080p ..WEB.H264.Modified_By_mxn.mkv
    http://www.filecondo.com/dl.php?f=na8d6c1RkgAU

    1Monarch.Legacy.of.Monsters.S01E07.Will.the.Real.M ay.Please.Stand.Up-.1080p.WEB.H264.Modified_By_mxn.mkv
    http://www.filecondo.com/dl.php?f=wf19251RgCJG

    1monarch.legacy.of.monsters.s01e07.1080p.web.h264. mkv
    http://www.filecondo.com/dl.php?f=M4ca191RgCII

    Monarch.Legacy.of.Monsters.S01E06.Terrifying.Mirac les.1080p.WEB.H264.Modified_By_mxn.mkv
    http://www.filecondo.com/dl.php?f=tc3ed21ReOnX

    Monarch.Legacy.of.Monsters.S01E06.Terrifying.Mirac les.1080p.ATVP.WEB-DL.DDP5.1.H.264.mkv
    http://www.filecondo.com/dl.php?f=h2aa2f1ReOmW

    monarch.legacy.of.monsters.s01e05.1080p.web.h264.m kv
    http://www.filecondo.com/dl.php?f=G0b4331RbUkY

    Monarch.Legacy.of.Monsters.S01E05.The.Way.Out.1080 p.WEB.H264.Modified_By_mxn.mkv
    http://www.filecondo.com/dl.php?f=n1f6ae1RbUk1

    monarch.legacy.of.monsters.s01e04.1080p.web.h264.m kv
    http://www.filecondo.com/dl.php?f=Xb36951R937e

    Monarch.Legacy.of.Monsters.S01E04.Parallels.And.In teriors.1080p.WEB.H264.Modified_By_mxn.mkv
    http://www.filecondo.com/dl.php?f=ld0a821R936h

    monarch.legacy.of.monsters.s01e03.1080p.web.h264.m kv
    http://www.filecondo.com/dl.php?f=hec66d1R6tmt

    Monarch.Legacy.of.Monsters.S01E03.Secrets.And.Lies .1080p.WEB.H264.Modified_By_mxn.mkv
    http://www.filecondo.com/dl.php?f=Jc153d1R6tku


    monarch.legacy.of.monsters.s01e02.1080p.web.h264.m kv
    http://www.filecondo.com/dl.php?f=i0f2501R4ftn

    monarch.legacy.of.monsters.s01e01.1080p.web.h264.m kv
    http://www.filecondo.com/dl.php?f=k7ef521R4fst

    Monarch.Legacy.of.Monsters.S01E02.Departure.1080p. WEB.H264.Modified_By_mxn.mkv
    http://www.filecondo.com/dl.php?f=Yf38a31R4fnA

    Monarch.Legacy.of.Monsters.S01E01.Aftermath.1080p. WEB.H264.Modified_By_mxn.mkv
    http://www.filecondo.com/dl.php?f=R7a1b21R4flH

  2. The Following 5 Users Say Thank You to Duckload.us For This Useful Post:

    aumfer (12-19-2023), bigbang06 (12-03-2023), petpina2010 (11-18-2023), sawara (12-17-2023), Wesker_TOT (11-19-2023)

  3. #2
    Senior Member รูปส่วนตัว petpina2010
    สมัครเมื่อ
    Jun 2020
    โพสต์
    235
    Thanks
    239
    Thanked 0 Times in 0 Posts
    ขอบคุณครับ

  4. #3
    Senior Member
    สมัครเมื่อ
    Dec 2013
    โพสต์
    6,005
    Thanks
    7,987
    Thanked 0 Times in 0 Posts
    ขอบคุณครับ...

  5. #4
    Administrators รูปส่วนตัว Duckload.us
    สมัครเมื่อ
    Dec 2010
    โพสต์
    149,921
    Thanks
    7
    Thanked 156,922 Times in 68,567 Posts
    Season 1 Ep.1-3

  6. #5
    Administrators รูปส่วนตัว Duckload.us
    สมัครเมื่อ
    Dec 2010
    โพสต์
    149,921
    Thanks
    7
    Thanked 156,922 Times in 68,567 Posts
    Monarch Legacy of Monsters (2023) Season 1 Ep.1-5

  7. #6
    Senior Member
    สมัครเมื่อ
    Jul 2013
    โพสต์
    181
    Thanks
    0
    Thanked 0 Times in 0 Posts
    ไงไม่มีพาษไทย

  8. #7
    Administrators รูปส่วนตัว Duckload.us
    สมัครเมื่อ
    Dec 2010
    โพสต์
    149,921
    Thanks
    7
    Thanked 156,922 Times in 68,567 Posts
    Monarch Legacy of Monsters (2023) Season 1 Ep.1-6

  9. #8
    Member
    สมัครเมื่อ
    Nov 2021
    โพสต์
    52
    Thanks
    0
    Thanked 0 Times in 0 Posts
    ขอบคุณครับ

  10. #9
    Administrators รูปส่วนตัว Duckload.us
    สมัครเมื่อ
    Dec 2010
    โพสต์
    149,921
    Thanks
    7
    Thanked 156,922 Times in 68,567 Posts
    Season 1 Ep.1-10

+ ตอบกลับกระทู้

ข้อมูลกระทู้

Users Browsing this Thread

ในขณะนี้มี 1 ท่านดูกระทู้อยู่. (0 สมาชิกและ 1 ผู้เยี่ยมชม)

     

กฎการโพสต์ข้อความ

  • ท่าน ไม่สามารถ ตั้งกระทู้ใหม่ได้
  • ท่าน ไม่สามารถ ตอบกระทู้ได้
  • ท่าน ไม่สามารถ แนบไฟล์ได้
  • ท่าน ไม่สามารถ แก้ไขข้อความโพสต์ได้
  • BB code สถานะ เปิด
  • Smilies สถานะ เปิด
  • [IMG] สถานะ เปิด
  • HTML สถานะ ปิด