+ ตอบกลับกระทู้
สรุปผลการค้นหา 1 ถึง 8 จากทั้งหมด 8
  1. #1
    Administrators รูปส่วนตัว Duckload.us
    สมัครเมื่อ
    Dec 2010
    โพสต์
    149,921
    Thanks
    7
    Thanked 156,918 Times in 68,566 Posts

    Lightbulb [ฝรั่ง]-Indiana Jones and the Dial of Destiny (2023) [1080p WEB-DL]-[เสียง: ไทย DD+ 5.1 + อังกฤษ DD+ Atmos 5.1]-[Sub: ไทย + อังกฤษ SRT]-WEB-DL.H.264.1080p. [Master]-[พากย์ไทย บรรยายไทย]



    -เรื่องย่อ-
    เมื่อเขาพบว่าตัวเองอยู่ในยุคใหม่และกำลังอยู่ในเส้น ทางสู่การเกษียณ อินดี้ จะต้องพยายามหาทางปรับตัวเข้าสู่โลกที่ใหญ่เกินกว่าเ ขาไปแล้ว แต่เมื่อปีศาจตนเดิมกลับมาในรูปแบบของตัวคู่ปรับเก่า อินดี้ จึงต้องกลับมาสวมหมวกและฟาดแส้ของเขาอีกครั้ง เพื่อให้มั่นใจว่าวัตถุโบราณอันทรงพลังจะไม่ได้ตกอยู ่ในมือของคนชั่ว

    Video
    ID : 1
    Format : AVC
    Format/Info : Advanced Video Codec
    Format profile : High@L4
    Format settings : CABAC / 4 Ref Frames
    Format settings, CABAC : Yes
    Format settings, Reference fra : 4 frames
    Codec ID : V_MPEG4/ISO/AVC
    Duration : 2 h 34 min
    Bit rate : 8 000 kb/s
    Width : 1 920 pixels
    Height : 1 080 pixels
    Display aspect ratio : 16:9
    Frame rate mode : Constant
    Frame rate : 23.976 (24000/1001) FPS
    Color space : YUV
    Chroma subsampling : 4:2:0
    Bit depth : 8 bits
    Scan type : Progressive
    Bits/(Pixel*Frame) : 0.161
    Stream size : 8.36 GiB (89%)
    Writing library : x264 core 164 r3094 bfc87b7
    Encoding settings : cabac=1 / ref=4 / deblock=1:-1:-1 / analyse=0x3:0x133 / me=umh / subme=9 / psy=1 / psy_rd=1.00:0.15 / mixed_ref=1 / me_range=16 / chroma_me=1 / trellis=2 / 8x8dct=1 / cqm=0 / deadzone=21,11 / fast_pskip=1 / chroma_qp_offset=-3 / threads=12 / lookahead_threads=1 / sliced_threads=0 / nr=0 / decimate=1 / interlaced=0 / bluray_compat=0 / stitchable=1 / constrained_intra=0 / bframes=3 / b_pyramid=2 / b_adapt=2 / b_bias=0 / direct=3 / weightb=1 / open_gop=0 / weightp=2 / keyint=48 / keyint_min=4 / scenecut=0 / intra_refresh=0 / rc_lookahead=48 / rc=abr / mbtree=1 / bitrate=8000 / ratetol=1.0 / qcomp=0.60 / qpmin=0 / qpmax=69 / qpstep=4 / vbv_maxrate=8800 / vbv_bufsize=16000 / nal_hrd=none / filler=0 / ip_ratio=1.40 / aq=1:1.00
    Language : English
    Default : Yes
    Forced : Yes
    Color range : Limited
    Color primaries : BT.709
    Transfer characteristics : BT.709
    Matrix coefficients : BT.709

    Audio #1
    ID : 2
    Format : E-AC-3 JOC
    Format/Info : Enhanced AC-3 with Joint Object Coding
    Commercial name : Dolby Digital Plus with Dolby Atmos
    Codec ID : A_EAC3
    Duration : 2 h 34 min
    Bit rate mode : Constant
    Bit rate : 768 kb/s
    Channel(s) : 6 channels
    Channel layout : L R C LFE Ls Rs
    Sampling rate : 48.0 kHz
    Frame rate : 31.250 FPS (1536 SPF)
    Compression mode : Lossy
    Stream size : 849 MiB (9%)
    Title : English (DD+ Atmos 5.1 - Movies Anywhere)
    Language : English
    Service kind : Complete Main
    Default : No
    Forced : No
    Complexity index : 16
    Number of dynamic objects : 15
    Bed channel count : 1 channel
    Bed channel configuration : LFE

    Audio #2
    ID : 3
    Format : E-AC-3
    Format/Info : Enhanced AC-3
    Commercial name : Dolby Digital Plus
    Codec ID : A_EAC3
    Duration : 2 h 34 min
    Bit rate mode : Constant
    Bit rate : 192 kb/s
    Channel(s) : 6 channels
    Channel layout : L R C LFE Ls Rs
    Sampling rate : 48.0 kHz
    Frame rate : 31.250 FPS (1536 SPF)
    Compression mode : Lossy
    Delay relative to video : 5 s 0 ms
    Stream size : 212 MiB (2%)
    Title : Thai (DD+ 5.1 - Hotstar)
    Language : Thai
    Service kind : Complete Main
    Default : Yes
    Forced : No

    Text #1
    ID : 4
    Format : UTF-8
    Codec ID : S_TEXT/UTF8
    Codec ID/Info : UTF-8 Plain Text
    Duration : 2 h 22 min
    Bit rate : 41 b/s
    Frame rate : 0.204 FPS
    Count of elements : 1739
    Stream size : 42.9 KiB (0%)
    Title : English (SRT - Movies Anywhere)
    Language : English
    Default : No
    Forced : No

    Text #2
    ID : 5
    Format : UTF-8
    Codec ID : S_TEXT/UTF8
    Codec ID/Info : UTF-8 Plain Text
    Duration : 2 h 33 min
    Bit rate : 89 b/s
    Frame rate : 0.190 FPS
    Count of elements : 1751
    Stream size : 101 KiB (0%)
    Title : Thai (SRT - Hotstar)
    Language : Thai
    Default : Yes
    Forced : No

    Menu
    00:00:00.000 : en:Chapter 01
    00:05:08.000 : en:Chapter 02
    00:08:49.000 : en:Chapter 03
    00:14:46.000 : en:Chapter 04
    00:21:34.000 : en:Chapter 05
    00:24:13.000 : en:Chapter 06
    00:27:05.000 : en:Chapter 07
    00:33:09.000 : en:Chapter 08
    00:40:35.000 : en:Chapter 09
    00:46:25.000 : en:Chapter 10
    00:51:28.000 : en:Chapter 11
    00:54:30.000 : en:Chapter 12
    00:59:35.000 : en:Chapter 13
    01:02:04.000 : en:Chapter 14
    01:08:57.000 : en:Chapter 15
    01:13:32.000 : en:Chapter 16
    01:20:09.000 : en:Chapter 17
    01:26:07.000 : en:Chapter 18
    01:34:23.000 : en:Chapter 19
    01:36:45.000 : en:Chapter 20
    01:40:39.000 : en:Chapter 21
    01:48:03.000 : en:Chapter 22
    01:55:33.000 : en:Chapter 23
    02:02:17.000 : en:Chapter 24
    02:05:10.000 : en:Chapter 25
    02:12:27.000 : en:Chapter 26
    02:17:31.000 : en:Chapter 27
    02:23:19.000 : en:Chapter 28




    Indiana.Jones.and.the.Dial.of.Destiny.2023.1080p.M A.WEB-DL.DDP5.1.Atmos.H.264.mkv
    http://www.filecondo.com/dl.php?f=ne79f41R92VX
    10.09 GB

    Indiana.Jones.and.the.Dial.of.Destiny.2023.1080p.W EBRip.DDP5.1.Atmos.x264.mkv
    http://www.filecondo.com/dl.php?f=b01f491R9Jar
    5.75 GB

  2. The Following 7 Users Say Thank You to Duckload.us For This Useful Post:

    bigbang06 (12-01-2023), Jodz14 (12-03-2023), noi54 (12-02-2023), numhouse (12-01-2023), petpina2010 (12-01-2023), scsyn (12-02-2023), Wesker_TOT (12-02-2023)

  3. #2
    Senior Member
    สมัครเมื่อ
    Jul 2013
    โพสต์
    181
    Thanks
    0
    Thanked 0 Times in 0 Posts
    พาษไทยมาแล้ว ขอบคุณครับ

  4. #3
    Senior Member รูปส่วนตัว petpina2010
    สมัครเมื่อ
    Jun 2020
    โพสต์
    235
    Thanks
    239
    Thanked 0 Times in 0 Posts
    ขอบคุณครับ

  5. #4
    Senior Member
    สมัครเมื่อ
    Jul 2013
    โพสต์
    181
    Thanks
    0
    Thanked 0 Times in 0 Posts
    มีใครโหลดๆอยู่แล้วหลุดต้องเริ่มโหลดใหม่ไหมครับ

  6. #5
    Senior Member
    สมัครเมื่อ
    Dec 2013
    โพสต์
    6,005
    Thanks
    7,987
    Thanked 0 Times in 0 Posts
    ขอบคุณครับ...

  7. #6
    Senior Member
    สมัครเมื่อ
    Jul 2012
    โพสต์
    8,594
    Thanks
    0
    Thanked 0 Times in 0 Posts
    ขอบคุณมากจ้า

  8. #7
    Junior Member
    สมัครเมื่อ
    Oct 2023
    โพสต์
    5
    Thanks
    0
    Thanked 0 Times in 0 Posts
    โหลดไม่ได้

  9. #8
    Junior Member
    สมัครเมื่อ
    Sep 2023
    โพสต์
    13
    Thanks
    25
    Thanked 0 Times in 0 Posts
    ขอบคุณมากๆครับแอด

+ ตอบกลับกระทู้

ข้อมูลกระทู้

Users Browsing this Thread

ในขณะนี้มี 1 ท่านดูกระทู้อยู่. (0 สมาชิกและ 1 ผู้เยี่ยมชม)

     

กฎการโพสต์ข้อความ

  • ท่าน ไม่สามารถ ตั้งกระทู้ใหม่ได้
  • ท่าน ไม่สามารถ ตอบกระทู้ได้
  • ท่าน ไม่สามารถ แนบไฟล์ได้
  • ท่าน ไม่สามารถ แก้ไขข้อความโพสต์ได้
  • BB code สถานะ เปิด
  • Smilies สถานะ เปิด
  • [IMG] สถานะ เปิด
  • HTML สถานะ ปิด