+ ตอบกลับกระทู้
สรุปผลการค้นหา 1 ถึง 2 จากทั้งหมด 2
  1. #1
    Administrators รูปส่วนตัว Duckload.us
    สมัครเมื่อ
    Dec 2010
    โพสต์
    149,921
    Thanks
    7
    Thanked 156,889 Times in 68,557 Posts

    Lightbulb [ฝรั่ง]-[Netflix] The Unbearable Weight of Massive Talent (2022) ข้านี่แหละ นิค “ฟักกลิ้ง” เคจ [เสียง:ไทย 2.0-อังกฤษ AC-3 5.1][บรรยาย: ไทย PGS/SRT-อังกฤษ SRT Netflix]-WEB-DL.H.264.1080p. [Netflix (web-dl)]-[พากย์ไทย บรรยายไทย]




    เรื่องราวของ นิโคลัส เคจ ดาราฮอลลีวูดรุ่นใหญ่ตกอับ ที่แม้ว่าในอดีตจะเคยฝากผลงานอันยิ่งใหญ่เอาไว้มากมา ยทั้ง Con Air และ Face/Off แต่เขากลับต้องมาเผชิญช่วงเวลาที่ยากลำบากไม่มีใครจ้ างงาน จนต้องจำใจยอมรับข้อเสนอที่ไม่น่าไว้วางใจให้เดินทาง ไปร่วมงานวันเกิดของมหาเศรษฐีชาวเม็กซิกันแลกกับเงิน หนึ่งล้านดอลลาร์สหรัฐฯ และเขาก็พบว่ามหาเศรษฐีคนนี้เป็นแฟนพันธุ์แท้ของตัวเ ขาเอง แต่เรื่องราวสุดวายป่วงยังไม่จบลงแค่นี้ เมื่อเคจพบว่าภายใต้หน้ากากแฟนพันธุ์แท้ ‘นิค เคจ’ มหาเศรษฐีคนนี้คือ เจ้าพ่อค้ายารายใหญ่ที่เป็นที่ต้องการตัวของ CIA นั่นทำให้เขาถูกหมายหัวในฐานะผู้สมรู้ร่วมคิด เคจต้องตกกระไดพลอยโจนสวมบทบาทในอดีตที่เคยสร้างชื่อ ให้กับเขาเพื่อหาทางเอาตัวรอดจากสถานการณ์นี้ไปให้ได ้


    Video
    ID : 1
    Format : AVC
    Format/Info : Advanced Video Codec
    Format profile : High@L4
    Format settings : CABAC / 4 Ref Frames
    Format settings, CABAC : Yes
    Format settings, Reference fra : 4 frames
    Codec ID : V_MPEG4/ISO/AVC
    Duration : 1 h 46 min
    Bit rate mode : Variable
    Bit rate : 2 576 kb/s
    Maximum bit rate : 20.0 Mb/s
    Width : 1 920 pixels
    Height : 1 080 pixels
    Display aspect ratio : 16:9
    Frame rate mode : Constant
    Frame rate : 23.976 (24000/1001) FPS
    Color space : YUV
    Chroma subsampling : 4:2:0
    Bit depth : 8 bits
    Scan type : Progressive
    Bits/(Pixel*Frame) : 0.052
    Stream size : 1.92 GiB (74%)
    Writing library : x264 core 148 r2727 7d026e8
    Encoding settings : cabac=1 / ref=4 / deblock=1:0:0 / analyse=0x3:0x111 / me=umh / subme=10 / psy=1 / psy_rd=1.00:0.00 / mixed_ref=1 / me_range=120 / chroma_me=1 / trellis=2 / 8x8dct=1 / cqm=0 / deadzone=21,11 / fast_pskip=1 / chroma_qp_offset=-2 / threads=6 / lookahead_threads=1 / sliced_threads=0 / nr=0 / decimate=1 / interlaced=0 / bluray_compat=0 / stitchable=1 / constrained_intra=0 / bframes=16 / b_pyramid=2 / b_adapt=2 / b_bias=0 / direct=3 / weightb=1 / open_gop=0 / weightp=2 / keyint=240 / keyint_min=121 / scenecut=0 / intra_refresh=0 / rc_lookahead=240 / rc=crf / mbtree=1 / crf=18.0 / qcomp=0.50 / qpmin=6 / qpmax=51 / qpstep=4 / vbv_maxrate=20000 / vbv_bufsize=25000 / crf_max=0.0 / nal_hrd=vbr / filler=0 / ip_ratio=1.40 / aq=1:0.80
    Default : Yes
    Forced : No

    Audio #1
    ID : 2
    Format : E-AC-3
    Format/Info : Enhanced AC-3
    Commercial name : Dolby Digital Plus
    Codec ID : A_EAC3
    Duration : 1 h 46 min
    Bit rate mode : Constant
    Bit rate : 128 kb/s
    Channel(s) : 2 channels
    Channel layout : L R
    Sampling rate : 48.0 kHz
    Frame rate : 31.250 FPS (1536 SPF)
    Compression mode : Lossy
    Stream size : 97.8 MiB (4%)
    Title : [Thai-AC-3]
    Language : Thai
    Service kind : Complete Main
    Default : Yes
    Forced : No

    Audio #2
    ID : 3
    Format : E-AC-3 JOC
    Format/Info : Enhanced AC-3 with Joint Object Coding
    Commercial name : Dolby Digital Plus with Dolby Atmos
    Codec ID : A_EAC3
    Duration : 1 h 46 min
    Bit rate mode : Constant
    Bit rate : 768 kb/s
    Channel(s) : 6 channels
    Channel layout : L R C LFE Ls Rs
    Sampling rate : 48.0 kHz
    Frame rate : 31.250 FPS (1536 SPF)
    Compression mode : Lossy
    Stream size : 587 MiB (22%)
    Title : [English-AC-3 5.1 Atmos]
    Language : English
    Service kind : Complete Main
    Default : No
    Forced : No
    Complexity index : 16
    Number of dynamic objects : 15
    Bed channel count : 1 channel
    Bed channel configuration : LFE

    Text #1
    ID : 4
    Format : PGS
    Muxing mode : zlib
    Codec ID : S_HDMV/PGS
    Codec ID/Info : Picture based subtitle format used on BDs/HD-DVDs
    Duration : 1 h 35 min
    Bit rate : 553 b/s
    Count of elements : 36
    Stream size : 389 KiB (0%)
    Title : [Thai Netflix Forced PGS]
    Language : Thai
    Default : Yes
    Forced : No

    Text #2
    ID : 5
    Format : PGS
    Muxing mode : zlib
    Codec ID : S_HDMV/PGS
    Codec ID/Info : Picture based subtitle format used on BDs/HD-DVDs
    Duration : 1 h 46 min
    Bit rate : 46.8 kb/s
    Count of elements : 3320
    Stream size : 35.6 MiB (1%)
    Title : [Thai Netflix PGS]
    Language : Thai
    Default : No
    Forced : No

    Text #3
    ID : 6
    Format : UTF-8
    Codec ID : S_TEXT/UTF8
    Codec ID/Info : UTF-8 Plain Text
    Duration : 1 h 35 min
    Bit rate : 1 b/s
    Count of elements : 18
    Stream size : 1.14 KiB (0%)
    Title : Thai Forced SRT
    Language : Thai
    Default : No
    Forced : Yes

    Text #4
    ID : 7
    Format : UTF-8
    Codec ID : S_TEXT/UTF8
    Codec ID/Info : UTF-8 Plain Text
    Duration : 1 h 46 min
    Bit rate : 139 b/s
    Count of elements : 1660
    Stream size : 108 KiB (0%)
    Title : Thai SRT
    Language : Thai
    Default : No
    Forced : No

    Text #5
    ID : 8
    Format : UTF-8
    Codec ID : S_TEXT/UTF8
    Codec ID/Info : UTF-8 Plain Text
    Duration : 1 h 27 min
    Bit rate : 2 b/s
    Count of elements : 58
    Stream size : 1.42 KiB (0%)
    Title : English Forced SRT
    Language : English
    Default : No
    Forced : Yes

    Text #6
    ID : 9
    Format : UTF-8
    Codec ID : S_TEXT/UTF8
    Codec ID/Info : UTF-8 Plain Text
    Duration : 1 h 39 min
    Bit rate : 83 b/s
    Count of elements : 1994
    Stream size : 61.2 KiB (0%)
    Title : English SRT
    Language : English
    Default : No
    Forced : No





    The_Unbearable_Weight_of_Massive_Talent_(2022)_ข้า นี่แหละ_นิค_“ฟักกลิ้ง”_เคจ.1080p.Modified_By_mxn.m kv
    http://www.filecondo.com/dl.php?f=nd304e1Ra9U2

    2.8 GB

  2. The Following 2 Users Say Thank You to Duckload.us For This Useful Post:

    noi54 (12-08-2023), Wesker_TOT (12-09-2023)

  3. #2
    Senior Member
    สมัครเมื่อ
    Dec 2013
    โพสต์
    6,002
    Thanks
    7,984
    Thanked 0 Times in 0 Posts
    ขอบคุณครับ...

+ ตอบกลับกระทู้

ข้อมูลกระทู้

Users Browsing this Thread

ในขณะนี้มี 1 ท่านดูกระทู้อยู่. (0 สมาชิกและ 1 ผู้เยี่ยมชม)

     

กฎการโพสต์ข้อความ

  • ท่าน ไม่สามารถ ตั้งกระทู้ใหม่ได้
  • ท่าน ไม่สามารถ ตอบกระทู้ได้
  • ท่าน ไม่สามารถ แนบไฟล์ได้
  • ท่าน ไม่สามารถ แก้ไขข้อความโพสต์ได้
  • BB code สถานะ เปิด
  • Smilies สถานะ เปิด
  • [IMG] สถานะ เปิด
  • HTML สถานะ ปิด