+ ตอบกลับกระทู้
สรุปผลการค้นหา 1 ถึง 2 จากทั้งหมด 2
  1. #1
    Administrators รูปส่วนตัว Duckload.us
    สมัครเมื่อ
    Dec 2010
    โพสต์
    149,921
    Thanks
    7
    Thanked 156,920 Times in 68,566 Posts

    Lightbulb [ญี่ปุ่น]-PERFECT DAYS (2023) หยุดโลกเหงาไว้ตรงนี้ [1080p WEB-DL H.264] [Soundtrack 2.0] [บรรยายไทย(แปลเอง) , อังกฤษ , ซับฝังโครเอเชีย]




    Quote:

    PERFECT DAYS (2023) ยุว้นี้

    “ฮิรายามะ” (โคจิ ยากุโช) ดูจะพอใจกับอาชีพพนักงานทำความสะอาดห้องน้ำของโตเกีย ว กิจวัตรประจำวันนอกเหนือจากงานเป็นอะไรที่เรียบง่าย เขาชอบฟังเพลงจากเทปคาสเซตต์ม้วนเก่า ชอบอ่านหนังสือจากร้านมือสอง เขารักต้นไม้และถ่ายรูปมันเก็บไว้ทุกวัน แต่ชีวิตที่เหมือนน้ำนิ่งก็เกิดแรงกระเพื่อมเล็กน้อย เมื่ออยู่ๆ หลานสาวของเขาก็เดินทางมาหาอย่างไม่คาดคิด พร้อมความลับบางอย่างที่จะทำให้หัวใจคนดูได้หัวเราะแ ละร้องไห้ไปด้วยกันกับเขา…

    ชนะรางวัลนักแสดงนำชายยอดเยี่ยม หนังเมืองคานส์ 2023
    Prize of the Ecumenical Jury - Wim Wenders - Cannes Film Festival 2023
    เข้าชิงภาพยนตร์นานาชาติยอดเยี่ยม ออสการ์ 2024

    ปล. มีซับฝังโครเอเชีย เลือกใช้ซับไทยพื้นหลังดำตัวอักษรสีเหลือง จะอ่านง่ายสุด ลองเลือกๆดู
    แปลเอง รู้เรื่องประมาณ 99% มั่วบ้าง ขาดตกบกพร่อง ผิดพลาดประการใดก็ขออภัย อิอิ


    Quote:







    Quote:
    *ดู INFO Report คลิ๊ก!*
    Format : Matroska
    Format version : Version 4
    File size : 3.37 GiB
    Duration : 2 h 4 min
    Overall bit rate : 3 882 kb/s
    Frame rate : 24.000 FPS
    Encoded date : 2024-01-31 07:47:24 UTC
    Writing application : mkvmerge v81.0 ('Milliontown') 64-bit
    Writing library : libebml v1.4.4 + libmatroska v1.7.1

    Video
    ID : 1
    Format : AVC
    Format/Info : Advanced Video Codec
    Format profile : [email protected]
    Format settings : CABAC / 5 Ref Frames
    Format settings, CABAC : Yes
    Format settings, Reference : 5 frames
    Codec ID : V_MPEG4/ISO/AVC
    Duration : 2 h 4 min
    Bit rate : 3 684 kb/s
    Width : 1 920 pixels
    Height : 1 080 pixels
    Display aspect ratio : 16:9
    Frame rate mode : Constant
    Frame rate : 24.000 FPS
    Color space : YUV
    Chroma subsampling : 4:2:0
    Bit depth : 8 bits
    Scan type : Progressive
    Bits/(Pixel*Frame) : 0.074
    Stream size : 3.20 GiB (95%)
    Default : Yes
    Forced : No
    Color range : Limited
    Color primaries : BT.709
    Transfer characteristics : BT.709
    Matrix coefficients : BT.709

    Audio
    ID : 2
    Format : AAC LC
    Format/Info : Advanced Audio Codec Low Complexity
    Codec ID : A_AAC-2
    Duration : 2 h 4 min
    Bit rate : 192 kb/s
    Channel(s) : 2 channels
    Channel layout : L R
    Sampling rate : 48.0 kHz
    Frame rate : 46.875 FPS (1024 SPF)
    Compression mode : Lossy
    Stream size : 168 MiB (5%)
    Default : Yes
    Forced : No

    Text #1
    ID : 3
    Format : PGS
    Muxing mode : zlib
    Codec ID : S_HDMV/PGS
    Codec ID/Info : Picture based subtitle format used on BDs/HD-DVDs
    Duration : 2 h 4 min
    Bit rate : 5 764 b/s
    Frame rate : 0.171 FPS
    Count of elements : 1272
    Stream size : 5.12 MiB (0%)
    Language : Thai
    Default : Yes
    Forced : No

    Text #2
    ID : 4
    Format : PGS
    Muxing mode : zlib
    Codec ID : S_HDMV/PGS
    Codec ID/Info : Picture based subtitle format used on BDs/HD-DVDs
    Duration : 2 h 4 min
    Bit rate : 5 764 b/s
    Frame rate : 0.171 FPS
    Count of elements : 1272
    Stream size : 5.12 MiB (0%)
    Language : Thai
    Default : No
    Forced : No

    Text #3
    ID : 5
    Format : ASS
    Codec ID : S_TEXT/ASS
    Codec ID/Info : Advanced Sub Station Alpha
    Duration : 2 h 4 min
    Bit rate : 55 b/s
    Frame rate : 0.085 FPS
    Count of elements : 636
    Compression mode : Lossless
    Stream size : 50.5 KiB (0%)
    Language : Thai
    Default : No
    Forced : No

    Text #4
    ID : 6
    Format : ASS
    Codec ID : S_TEXT/ASS
    Codec ID/Info : Advanced Sub Station Alpha
    Duration : 2 h 4 min
    Bit rate : 55 b/s
    Frame rate : 0.085 FPS
    Count of elements : 636
    Compression mode : Lossless
    Stream size : 50.5 KiB (0%)
    Language : Thai
    Default : No
    Forced : No

    Text #5
    ID : 7
    Format : UTF-8
    Codec ID : S_TEXT/UTF8
    Codec ID/Info : UTF-8 Plain Text
    Duration : 2 h 4 min
    Bit rate : 60 b/s
    Frame rate : 0.085 FPS
    Count of elements : 636
    Stream size : 55.0 KiB (0%)
    Language : Thai
    Default : No
    Forced : No

    Text #6
    ID : 8
    Format : UTF-8
    Codec ID : S_TEXT/UTF8
    Codec ID/Info : UTF-8 Plain Text
    Duration : 2 h 4 min
    Bit rate : 40 b/s
    Frame rate : 0.085 FPS
    Count of elements : 636
    Stream size : 37.0 KiB (0%)
    Language : Thai
    Default : No
    Forced : No

    Text #7
    ID : 9
    Format : ASS
    Codec ID : S_TEXT/ASS
    Codec ID/Info : Advanced Sub Station Alpha
    Duration : 1 h 54 min
    Bit rate : 29 b/s
    Frame rate : 0.067 FPS
    Count of elements : 457
    Compression mode : Lossless
    Stream size : 24.4 KiB (0%)
    Language : English
    Default : No
    Forced : No

    Text #8
    ID : 10
    Format : ASS
    Codec ID : S_TEXT/ASS
    Codec ID/Info : Advanced Sub Station Alpha
    Duration : 1 h 54 min
    Bit rate : 29 b/s
    Frame rate : 0.067 FPS
    Count of elements : 457
    Compression mode : Lossless
    Stream size : 24.4 KiB (0%)
    Language : English
    Default : No
    Forced : No





    Quote:








    Perfect_Days_(2023)_(1080p_WEB-DL_H.264_AAC_2.0_hardsub).mkv
    http://www.filecondo.com/dl.php?f=T252af1Rwc7D

    3.62 GB

  2. #2
    Member
    สมัครเมื่อ
    Jan 2019
    โพสต์
    99
    Thanks
    0
    Thanked 0 Times in 0 Posts
    ขอบคุณครับ

+ ตอบกลับกระทู้

ข้อมูลกระทู้

Users Browsing this Thread

ในขณะนี้มี 1 ท่านดูกระทู้อยู่. (0 สมาชิกและ 1 ผู้เยี่ยมชม)

     

กฎการโพสต์ข้อความ

  • ท่าน ไม่สามารถ ตั้งกระทู้ใหม่ได้
  • ท่าน ไม่สามารถ ตอบกระทู้ได้
  • ท่าน ไม่สามารถ แนบไฟล์ได้
  • ท่าน ไม่สามารถ แก้ไขข้อความโพสต์ได้
  • BB code สถานะ เปิด
  • Smilies สถานะ เปิด
  • [IMG] สถานะ เปิด
  • HTML สถานะ ปิด