+ ตอบกลับกระทู้
สรุปผลการค้นหา 1 ถึง 2 จากทั้งหมด 2
  1. #1
    Administrators รูปส่วนตัว Duckload.us
    สมัครเมื่อ
    Dec 2010
    โพสต์
    149,921
    Thanks
    7
    Thanked 156,921 Times in 68,567 Posts

    Lightbulb [ฝรั่ง]-[WEBDL ภาพมาสเตอร์มาแล้ว]The Beekeeper นรกเรียกพ่อ [พากย์ไทยโรง-อังกฤษ][ซับไทย แปลGoogle-อังกฤษ]-WEB-DL.H.264.1080p. [Master]-[พากย์ไทยโรง]



    เรื่องย่อ
    เมื่อแก๊งคอลเซ็นเตอร์กลายเป็นเป้าหมายเดียวของเขา ศึกทลายซ่องสุมแก๊งชั่วจึงได้เริ่มต้นขึ้น เตรียมมันส์รับต้นปี 2024 ในภาพยนตร์บล็อกบัสเตอร์ระห่ำนรกแตก “The Beekeeper” กับเรื่องราวของ “อดัม เคลย์” (เจสัน สเตแธม) อดีตเจ้าหน้าที่ปฏิบัติการลับมือพระกาฬในโปรแกรม “บีคีปเปอร์” ที่ใช้ชีวิตหลังเกษียณอย่างสงบในการเลี้ยงผึ้ง แต่เกิดเหตุพลิกผันเมื่อคุณป้าเพื่อนบ้านคนสนิทของเข าปลิดชีวิตตัวเองลงเพราะตกเป็นเหยื่อของพวกแก๊งคอลเซ ็นเตอร์ต้มตุ๋น งานนี้ “อดัม เคลย์” จึงขอล้างแค้นแก๊งชั่วแบบถอนรากถอนโคตร ผลงานการกำกับสุดเดือดจาก เดวิด เอเยอร์ ชายอยู่เบื้องหลังภาพยนตร์แอ็กชันที่ดิบแบบถึงลูกถึง คนอย่าง Fury และ Suicide Squad แท็กทีมกับแอ็กชันสตาร์ตัวพ่อ เจสัน สเตแธม (Fast & Furious Presents: Hobbs & Shaw) สมทบด้วยเหล่านักแสดงมากฝีมือเจ้าของรางวัลออสการ์ เจเรมี ไอรอนส์ (Batman v Superman: Dawn of Justice) และ จอช ฮัทเชอร์สัน (The Hunger Games)



    General
    Unique ID : 50142690625025000416130536384950440597 (0x25B9218511192351D962900A2ABC1295)
    Complete name : D:2The.Beekeeper.2024.DDP5.1.WEBDL.x264.1080p.THR. rezero235789.mkv
    Format : Matroska
    Format version : Version 4
    File size : 7.14 GiB
    Duration : 1 h 45 min
    Overall bit rate mode : Variable
    Overall bit rate : 9 714 kb/s
    Movie name : The.Beekeeper.2024.DDP5.1.WEBDL.x264.1080p.THR.rez ero235789
    Encoded date : UTC 2024-01-30 10:16:19
    Writing application : mkvmerge v55.0.0 ('Waiting For Space') 64-bit
    Writing library : libebml v1.4.2 + libmatroska v1.6.4
    Cover : Yes
    Attachments : cover.jpg

    Video
    ID : 1
    Format : AVC
    Format/Info : Advanced Video Codec
    Format profile : High@L4
    Format settings : CABAC / 4 Ref Frames
    Format settings, CABAC : Yes
    Format settings, Reference fra : 4 frames
    Codec ID : V_MPEG4/ISO/AVC
    Duration : 1 h 45 min
    Bit rate mode : Constant
    Bit rate : 8 674 kb/s
    Nominal bit rate : 10 000 kb/s
    Width : 1 920 pixels
    Height : 800 pixels
    Display aspect ratio : 2.40:1
    Frame rate mode : Constant
    Frame rate : 23.976 (24000/1001) FPS
    Color space : YUV
    Chroma subsampling : 4:2:0
    Bit depth : 8 bits
    Scan type : Progressive
    Bits/(Pixel*Frame) : 0.236
    Stream size : 6.38 GiB (89%)
    Language : English
    Default : Yes
    Forced : No
    Color range : Limited
    Color primaries : BT.709
    Transfer characteristics : BT.709
    Matrix coefficients : BT.709

    Audio #1
    ID : 2
    Format : FLAC
    Format/Info : Free Lossless Audio Codec
    Codec ID : A_FLAC
    Duration : 1 h 45 min
    Bit rate mode : Variable
    Bit rate : 396 kb/s
    Channel(s) : 2 channels
    Channel layout : L R
    Sampling rate : 48.0 kHz
    Frame rate : 11.719 FPS (4096 SPF)
    Bit depth : 16 bits
    Compression mode : Lossless
    Stream size : 298 MiB (4%)
    Title : Thai(Rong)By.rezero235789
    Writing library : libFLAC 20080709 (UTC 2008-07-09)
    Language : Thai
    Default : Yes
    Forced : Yes

    Audio #2
    ID : 3
    Format : E-AC-3
    Format/Info : Enhanced AC-3
    Commercial name : Dolby Digital Plus
    Codec ID : A_EAC3
    Duration : 1 h 45 min
    Bit rate mode : Constant
    Bit rate : 640 kb/s
    Channel(s) : 6 channels
    Channel layout : L R C LFE Ls Rs
    Sampling rate : 48.0 kHz
    Frame rate : 31.250 FPS (1536 SPF)
    Compression mode : Lossy
    Stream size : 482 MiB (7%)
    Title : English
    Language : English
    Service kind : Complete Main
    Default : No
    Forced : No

    Text #1
    ID : 4
    Format : UTF-8
    Codec ID : S_TEXT/UTF8
    Codec ID/Info : UTF-8 Plain Text
    Duration : 1 h 36 min
    Bit rate : 63 b/s
    Count of elements : 1504
    Stream size : 44.5 KiB (0%)
    Language : English
    Default : No
    Forced : No

    Text #2
    ID : 5
    Format : UTF-8
    Codec ID : S_TEXT/UTF8
    Codec ID/Info : UTF-8 Plain Text
    Duration : 1 h 39 min
    Bit rate : 73 b/s
    Count of elements : 1830
    Stream size : 53.3 KiB (0%)
    Title : SDH
    Language : English
    Default : No
    Forced : No

    Text #3
    ID : 6
    Format : UTF-8
    Codec ID : S_TEXT/UTF8
    Codec ID/Info : UTF-8 Plain Text
    Duration : 1 h 36 min
    Bit rate : 79 b/s
    Count of elements : 1504
    Stream size : 55.8 KiB (0%)
    Title : Canadian
    Language : French
    Default : No
    Forced : No

    Text #4
    ID : 7
    Format : UTF-8
    Codec ID : S_TEXT/UTF8
    Codec ID/Info : UTF-8 Plain Text
    Duration : 1 h 36 min
    Bit rate : 159 b/s
    Count of elements : 1504
    Stream size : 112 KiB (0%)
    Title : Thai Google_HL
    Language : Thai
    Default : No
    Forced : No

    The.Beekeeper.2024.DDP5.1.WEBDL.x264.1080p.THR.rez ero235789.mkv
    http://www.filecondo.com/dl.php?f=kea64a1Rv0mc

    7.67 GB

    The.Beekeeper.2024.1080p.telesync.x264.THR.rezero2 35789.mkv
    http://www.filecondo.com/dl.php?f=6b7e951Rv0la

    6.88 GB

  2. The Following User Says Thank You to Duckload.us For This Useful Post:

    sawara (02-26-2024)

  3. #2
    Senior Member
    สมัครเมื่อ
    Dec 2013
    โพสต์
    990
    Thanks
    952
    Thanked 0 Times in 0 Posts
    ขอบคุณครับบ

+ ตอบกลับกระทู้

ข้อมูลกระทู้

Users Browsing this Thread

ในขณะนี้มี 1 ท่านดูกระทู้อยู่. (0 สมาชิกและ 1 ผู้เยี่ยมชม)

     

กฎการโพสต์ข้อความ

  • ท่าน ไม่สามารถ ตั้งกระทู้ใหม่ได้
  • ท่าน ไม่สามารถ ตอบกระทู้ได้
  • ท่าน ไม่สามารถ แนบไฟล์ได้
  • ท่าน ไม่สามารถ แก้ไขข้อความโพสต์ได้
  • BB code สถานะ เปิด
  • Smilies สถานะ เปิด
  • [IMG] สถานะ เปิด
  • HTML สถานะ ปิด