+ ตอบกลับกระทู้
สรุปผลการค้นหา 1 ถึง 7 จากทั้งหมด 7
  1. #1
    Administrators รูปส่วนตัว Duckload.us
    สมัครเมื่อ
    Dec 2010
    โพสต์
    149,921
    Thanks
    7
    Thanked 156,922 Times in 68,567 Posts

    Lightbulb [ฝรั่ง]-The Marvels (2023) [1080p IMAX WEB-DL]-[เสียง: ไทย DD+ 5.1 + อังกฤษ DD+ Atmos 5.1]-[Sub: ไทย + อังกฤษ SRT]-WEB-DL.H.264.1080p. [Master]-[พากย์ไทย บรรยายไทย]



    -เรื่องย่อ-
    แครอล แดนเวอร์ส หรือที่รู้จักกันในฐานะ กัปตันมาร์เวล ได้ทำการทวงคืนตัวตนของตัวเองอีกครั้งจากพวกครีหัวรุ นแรง รวมถึงการล้างแค้นมหาจอมปัญญา แต่การกระทำของเธอดันส่งผลที่ไม่ได้คาดคิด แครอลจึงต้องแบกรับภาระของจักรวาลที่กำลังสั่นคลอน วันหนึ่งในขณะที่เธอถูกส่งไปยังรูหนอนที่เชื่อมต่อกั บการปฏิวัติชาวครี พลังซูเปอร์พาวเวอร์ของเธอดันเกิดพันกันกับพลังของ กมล่าข่าน หรือ Ms. Marvel หญิงสาวจากเมืองเจอร์ซี และกัปตันโมนิก้าแรมโบ หลานสาวที่เหินห่างของเธอซึ่งเป็นกัปตันประจำสถานีอว กาศ S.A.B.E.R. แม้จะดูไม่น่าข้องเกี่ยวกันได้แต่ทั้งสามคนต้องร่วมม ือกันเรียนรู้ที่จะทำงานเป็นทีมเพื่อปกป้องจักรวาลใน ฐานะ เดอะ มาร์เวลส์

    Video
    ID : 1
    Format : AVC
    Format/Info : Advanced Video Codec
    Format profile : High@L4
    Format settings : CABAC / 4 Ref Frames
    Format settings, CABAC : Yes
    Format settings, Reference fra : 4 frames
    Codec ID : V_MPEG4/ISO/AVC
    Duration : 1 h 44 min
    Bit rate mode : Variable
    Bit rate : 6 467 kb/s
    Maximum bit rate : 12.7 Mb/s
    Width : 1 920 pixels
    Height : 1 080 pixels
    Display aspect ratio : 16:9
    Frame rate mode : Constant
    Frame rate : 24.000 FPS
    Color space : YUV
    Chroma subsampling : 4:2:0
    Bit depth : 8 bits
    Scan type : Progressive
    Bits/(Pixel*Frame) : 0.130
    Time code of first frame : 00:00:00 00
    Stream size : 4.73 GiB (87%)
    Language : English
    Default : Yes
    Forced : No
    Color range : Limited
    Color primaries : BT.709
    Transfer characteristics : BT.709
    Matrix coefficients : BT.709

    Audio #1
    ID : 2
    Format : E-AC-3 JOC
    Format/Info : Enhanced AC-3 with Joint Object Coding
    Commercial name : Dolby Digital Plus with Dolby Atmos
    Codec ID : A_EAC3
    Duration : 1 h 44 min
    Bit rate mode : Constant
    Bit rate : 768 kb/s
    Channel(s) : 6 channels
    Channel layout : L R C LFE Ls Rs
    Sampling rate : 48.0 kHz
    Frame rate : 31.250 FPS (1536 SPF)
    Compression mode : Lossy
    Stream size : 575 MiB (10%)
    Title : English (DD+ Atmos 5.1 - iTunes)
    Language : English
    Service kind : Complete Main
    Default : No
    Forced : No
    Complexity index : 16
    Number of dynamic objects : 15
    Bed channel count : 1 channel
    Bed channel configuration : LFE

    Audio #2
    ID : 3
    Format : E-AC-3
    Format/Info : Enhanced AC-3
    Commercial name : Dolby Digital Plus
    Codec ID : A_EAC3
    Duration : 1 h 44 min
    Bit rate mode : Constant
    Bit rate : 192 kb/s
    Channel(s) : 6 channels
    Channel layout : L R C LFE Ls Rs
    Sampling rate : 48.0 kHz
    Frame rate : 31.250 FPS (1536 SPF)
    Compression mode : Lossy
    Stream size : 144 MiB (3%)
    Title : Thai (DD+ 5.1 - Hotstar)
    Language : Thai
    Service kind : Complete Main
    Default : Yes
    Forced : No

    Text #1
    ID : 4
    Format : UTF-8
    Codec ID : S_TEXT/UTF8
    Codec ID/Info : UTF-8 Plain Text
    Duration : 1 min 29 s
    Bit rate : 4 b/s
    Frame rate : 0.022 FPS
    Count of elements : 2
    Stream size : 52.0 Bytes (0%)
    Title : English (Forced - SRT - iTunes)
    Language : English
    Default : No
    Forced : Yes

    Text #2
    ID : 5
    Format : UTF-8
    Codec ID : S_TEXT/UTF8
    Codec ID/Info : UTF-8 Plain Text
    Duration : 1 h 35 min
    Bit rate : 55 b/s
    Frame rate : 0.211 FPS
    Count of elements : 1207
    Stream size : 38.5 KiB (0%)
    Title : English (SRT - iTunes)
    Language : English
    Default : No
    Forced : No

    Text #3
    ID : 6
    Format : UTF-8
    Codec ID : S_TEXT/UTF8
    Codec ID/Info : UTF-8 Plain Text
    Duration : 1 h 42 min
    Bit rate : 97 b/s
    Frame rate : 0.200 FPS
    Count of elements : 1228
    Stream size : 72.8 KiB (0%)
    Title : Thai (SRT - Hotstar)
    Language : Thai
    Default : Yes
    Forced : No

    Menu
    00:00:00.000 : en:Chapter 01
    00:04:20.969 : en:Chapter 02
    00:07:03.006 : en:Chapter 03
    00:11:09.711 : en:Chapter 04
    00:14:14.270 : en:Chapter 05
    00:21:09.019 : en:Chapter 06
    00:27:19.889 : en:Chapter 07
    00:29:42.741 : en:Chapter 08
    00:33:25.505 : en:Chapter 09
    00:38:08.079 : en:Chapter 10
    00:43:50.255 : en:Chapter 11
    00:48:06.136 : en:Chapter 12
    00:50:26.818 : en:Chapter 13
    00:52:31.026 : en:Chapter 14
    00:58:52.073 : en:Chapter 15
    01:05:07.699 : en:Chapter 16
    01:09:47.687 : en:Chapter 17
    01:17:14.551 : en:Chapter 18
    01:23:57.037 : en:Chapter 19
    01:27:25.036 : en:Chapter 20
    01:29:50.015 : en:Chapter 21
    01:32:04.107 : en:Chapter 22
    01:33:12.133 : en:Chapter 23
    01:35:53.837 : en:Chapter 24
    01:37:35.188 : en:Chapter 25



    The.Marvels.2023.IMAX.1080p.DSNP.WEB-DL.DDP5.1.Atmos.H.264.mkv
    http://www.filecondo.com/dl.php?f=fc5f1d1RygJQ
    5.83 GB

    The.Marvels.2023.1080p.HS.WEB-DL.DDP5.1.Atmos.H.265-MESSI.mkv
    http://www.filecondo.com/dl.php?f=D87b1c1RygIM
    3.87 GB

    The.Marvels.2023.1080p.HS.WEB-DL.DDP5.1.Atmos.H.264-MESSI.mkv
    http://www.filecondo.com/dl.php?f=ad16741RygHM
    3.34 GB

    The.Marvels.2023.1080p.iT.WEB-DL.DDP5.1.Atmos.H.264.mkv
    http://www.filecondo.com/dl.php?f=df7f011RygVz
    8.41 GB

  2. The Following 5 Users Say Thank You to Duckload.us For This Useful Post:

    bigbang06 (02-09-2024), Jodz14 (02-11-2024), noi54 (02-24-2024), scsyn (02-10-2024), Wesker_TOT (02-11-2024)

  3. #2
    Senior Member
    สมัครเมื่อ
    Oct 2013
    โพสต์
    2,512
    Thanks
    0
    Thanked 0 Times in 0 Posts
    ขอบคุณครับ

  4. #3
    Senior Member
    สมัครเมื่อ
    Dec 2013
    โพสต์
    6,005
    Thanks
    7,987
    Thanked 0 Times in 0 Posts
    ขอบคุณครับ...

  5. #4
    Senior Member
    สมัครเมื่อ
    Jul 2012
    โพสต์
    8,594
    Thanks
    0
    Thanked 0 Times in 0 Posts
    ขอบคุณมากจ้า

  6. #5
    Junior Member
    สมัครเมื่อ
    Apr 2019
    ที่อยู่
    GB
    โพสต์
    4
    Thanks
    0
    Thanked 0 Times in 0 Posts

    Finest ัasual Dating - Genuine Females

    Connect casually with like-minded individuals on the ultimate dating platform.
    Verified Damsels
    Optimal ัasual Dating

  7. #6
    Member
    สมัครเมื่อ
    Feb 2024
    โพสต์
    68
    Thanks
    30
    Thanked 0 Times in 0 Posts
    ข อ บ คุ ณ ม า ก ค่ ะ

  8. #7
    Junior Member
    สมัครเมื่อ
    Apr 2013
    โพสต์
    14
    Thanks
    4
    Thanked 0 Times in 0 Posts
    ขอบคุณมากๆค่ะ

+ ตอบกลับกระทู้

ข้อมูลกระทู้

Users Browsing this Thread

ในขณะนี้มี 1 ท่านดูกระทู้อยู่. (0 สมาชิกและ 1 ผู้เยี่ยมชม)

     

กฎการโพสต์ข้อความ

  • ท่าน ไม่สามารถ ตั้งกระทู้ใหม่ได้
  • ท่าน ไม่สามารถ ตอบกระทู้ได้
  • ท่าน ไม่สามารถ แนบไฟล์ได้
  • ท่าน ไม่สามารถ แก้ไขข้อความโพสต์ได้
  • BB code สถานะ เปิด
  • Smilies สถานะ เปิด
  • [IMG] สถานะ เปิด
  • HTML สถานะ ปิด