+ ตอบกลับกระทู้
สรุปผลการค้นหา 1 ถึง 5 จากทั้งหมด 5
  1. #1
    Administrators รูปส่วนตัว Duckload.us
    สมัครเมื่อ
    Dec 2010
    โพสต์
    149,921
    Thanks
    7
    Thanked 156,922 Times in 68,567 Posts

    Lightbulb [เกาหลี]-[VIU] The Witch Part 2. The Other One (พากย์ไทย)-WEB-DL.H.264.1080p. [Master]-[พากย์ไทย (Master)]



    เรื่องย่อ: เด็กสาวปริศนา (ชินชีอา) ที่เป็นผู้รอดจากเหตุการณ์บุกรุกแล็บทดลองลับ ถูกตามล่าจากกลุ่มนักฆ่าที่ต้องการตัวเธอเพื่อจุดประ สงค์ร้ายบางอย่าง

    Video
    ID : 1
    Format : AVC
    Format/Info : Advanced Video Codec
    Format profile : [email protected]
    Format settings : CABAC / 4 Ref Frames
    Format settings, CABAC : Yes
    Format settings, Reference frames : 4 frames
    Format settings, GOP : M=4, N=24
    Codec ID : V_MPEG4/ISO/AVC
    Duration : 2 h 18 min
    Bit rate mode : Variable
    Bit rate : 2 047 kb/s
    Maximum bit rate : 4 500 kb/s
    Width : 1 920 pixels
    Height : 1 080 pixels
    Display aspect ratio : 16:9
    Frame rate mode : Constant
    Frame rate : 24.000 FPS
    Color space : YUV
    Chroma subsampling : 4:2:0
    Bit depth : 8 bits
    Scan type : Progressive
    Bits/(Pixel*Frame) : 0.041
    Stream size : 1.97 GiB (95%)
    Writing library : VOLO1.4.1
    Default : Yes
    Forced : No

    Audio
    ID : 2
    Format : AAC LC
    Format/Info : Advanced Audio Codec Low Complexity
    Codec ID : A_AAC-2
    Duration : 2 h 18 min
    Bit rate : 96.0 kb/s
    Channel(s) : 2 channels
    Channel layout : L R
    Sampling rate : 48.0 kHz
    Frame rate : 46.875 FPS (1024 SPF)
    Compression mode : Lossy
    Delay relative to video : -43 ms
    Stream size : 94.8 MiB (4%)
    Default : No
    Forced : No



    The_Witch_Part_2._The_Other_One_(พากย์ไทย).mkv
    http://www.filecondo.com/dl.php?f=6eac001Ryh15
    2.22 GB

    The.Witch.Part.2.The.Other.One.2022.HEVC_1080p_AC-3_TH_2.0_E-AC-3_EN_5.1.mkv
    http://www.filecondo.com/dl.php?f=f6c0361Ry0c8
    7.3 GB

    The.Witch.Part.2_-_The.Other.One.2022.1080p.VIU.WEB-DL.DDP2.0.H264.mkv
    http://www.filecondo.com/dl.php?f=C9cd571Ry0b3
    5.31 GB


    The_Witch_Part_1_The_Subversion_(2018).mkv
    http://www.filecondo.com/dl.php?f=g7d46c1Ry05f
    4.68 GB

  2. The Following 4 Users Say Thank You to Duckload.us For This Useful Post:

    Jodz14 (02-11-2024), masaomi (02-10-2024), sawara (02-26-2024), Wesker_TOT (02-10-2024)

  3. #2
    Senior Member
    สมัครเมื่อ
    Jul 2013
    โพสต์
    181
    Thanks
    0
    Thanked 0 Times in 0 Posts
    The_Witch_Part_1_The_Subversion_(2018).mkv



    มีแบบพาษไทยไหมครับ

  4. #3
    Senior Member
    สมัครเมื่อ
    Dec 2013
    โพสต์
    6,005
    Thanks
    7,987
    Thanked 0 Times in 0 Posts
    ขอบคุณครับ...

  5. #4
    Senior Member
    สมัครเมื่อ
    Jul 2012
    โพสต์
    8,594
    Thanks
    0
    Thanked 0 Times in 0 Posts
    ขอบคุณมากจ้า

  6. #5
    Senior Member
    สมัครเมื่อ
    Dec 2013
    โพสต์
    990
    Thanks
    952
    Thanked 0 Times in 0 Posts
    ขอบคุณครับบ

+ ตอบกลับกระทู้

ข้อมูลกระทู้

Users Browsing this Thread

ในขณะนี้มี 1 ท่านดูกระทู้อยู่. (0 สมาชิกและ 1 ผู้เยี่ยมชม)

     

กฎการโพสต์ข้อความ

  • ท่าน ไม่สามารถ ตั้งกระทู้ใหม่ได้
  • ท่าน ไม่สามารถ ตอบกระทู้ได้
  • ท่าน ไม่สามารถ แนบไฟล์ได้
  • ท่าน ไม่สามารถ แก้ไขข้อความโพสต์ได้
  • BB code สถานะ เปิด
  • Smilies สถานะ เปิด
  • [IMG] สถานะ เปิด
  • HTML สถานะ ปิด