+ ตอบกลับกระทู้
สรุปผลการค้นหา 1 ถึง 1 จากทั้งหมด 1
  1. #1
    Administrators รูปส่วนตัว Duckload.us
    สมัครเมื่อ
    Dec 2010
    โพสต์
    149,921
    Thanks
    7
    Thanked 156,922 Times in 68,567 Posts

    Lightbulb [เกาหลี]-[VIU] The Roundup No Way Out (2023) บู๊ระห่ำล่าล้างนรก ทุบนรกแตก [พากย์:เกาหลี][SUB:ไทย/อังกฤษ][1080p]-WEB-DL.H.264.1080p. [Netflix (web-dl)]-[Soundtrack บรรยายไทย (Master)]




    เรื่องย่อ: มาซ็อกโด (มาดงซ็อก) เข้าร่วมหน่วยสืบสวนอาชญากรรมใหม่ เพื่อสืบคดีฆาตกรรมผู้หญิงคนนึง พวกเขาพบว่าคดีนี้เกี่ยวข้องกับยาเสพติดชื่อว่า Hiper ที่มาจากแก๊งยากูซ่าญี่ปุ่น

    มาดงซ็อก
    อีจุนฮยอก
    อาโอกิ มูเนตากะ


    Format : Matroska
    Format version : Version 4
    File size : 4.71 GiB
    Duration : 1 h 45 min
    Overall bit rate : 6 396 kb/s
    Frame rate : 29.970 FPS
    Movie name : The.Roundup.No.Way.Out.2023.1080p.VIU.WEB-DL.KOREAN.DDP2.0.H264@Argon
    Encoded date : 2024-02-05 14:44:24 UTC
    Writing application : mkvmerge v74.0.0 ('You Oughta Know') 64-bit
    Writing library : libebml v1.4.4 + libmatroska v1.7.1
    Cover : Yes
    Attachments : cover.png

    Video
    ID : 1
    Format : AVC
    Format/Info : Advanced Video Codec
    Format profile : Constrained Baseline@L4
    Format settings : 1 Ref Frames
    Format settings, CABAC : No
    Format settings, Reference fra : 1 frame
    Format settings, GOP : M=1, N=24
    Codec ID : V_MPEG4/ISO/AVC
    Duration : 1 h 45 min
    Bit rate : 6 146 kb/s
    Width : 1 920 pixels
    Height : 1 080 pixels
    Display aspect ratio : 16:9
    Frame rate mode : Constant
    Frame rate : 29.970 (30000/1001) FPS
    Color space : YUV
    Chroma subsampling : 4:2:0
    Bit depth : 8 bits
    Scan type : Progressive
    Bits/(Pixel*Frame) : 0.099
    Stream size : 4.52 GiB (96%)
    Title : The.Roundup.No.Way.Out.2023.1080p.VIU.WEB-DL.KOREAN.DDP2.0.H264@Argon
    Default : Yes
    Forced : No
    Color range : Limited
    Color primaries : BT.709
    Transfer characteristics : BT.709
    Matrix coefficients : BT.709

    Audio
    ID : 2
    Format : E-AC-3
    Format/Info : Enhanced AC-3
    Commercial name : Dolby Digital Plus
    Codec ID : A_EAC3
    Duration : 1 h 45 min
    Bit rate mode : Constant
    Bit rate : 224 kb/s
    Channel(s) : 2 channels
    Channel layout : L R
    Sampling rate : 48.0 kHz
    Frame rate : 31.250 FPS (1536 SPF)
    Compression mode : Lossy
    Delay relative to video : -14 ms
    Stream size : 169 MiB (4%)
    Language : Korean
    Service kind : Complete Main
    Default : Yes
    Forced : No

    Text #1
    ID : 3
    Format : PGS
    Muxing mode : zlib
    Codec ID : S_HDMV/PGS
    Codec ID/Info : Picture based subtitle format used on BDs/HD-DVDs
    Duration : 1 h 38 min
    Bit rate : 40.8 kb/s
    Frame rate : 0.541 FPS
    Count of elements : 3204
    Stream size : 28.8 MiB (0%)
    Language : Thai
    Default : Yes
    Forced : Yes

    Text #2
    ID : 4
    Format : VobSub
    Muxing mode : zlib
    Codec ID : S_VOBSUB
    Codec ID/Info : Picture based subtitle format used on DVDs
    Duration : 1 h 38 min
    Bit rate : 9 304 b/s
    Frame rate : 0.270 FPS
    Count of elements : 1602
    Stream size : 6.57 MiB (0%)
    Language : Thai
    Default : Yes
    Forced : No

    Text #3
    ID : 5
    Format : UTF-8
    Codec ID : S_TEXT/UTF8
    Codec ID/Info : UTF-8 Plain Text
    Duration : 1 h 38 min
    Bit rate : 122 b/s
    Frame rate : 0.270 FPS
    Count of elements : 1602
    Stream size : 88.7 KiB (0%)
    Language : Thai
    Default : Yes
    Forced : No

    Text #4
    ID : 6
    Format : UTF-8
    Codec ID : S_TEXT/UTF8
    Codec ID/Info : UTF-8 Plain Text
    Duration : 1 h 38 min
    Bit rate : 52 b/s
    Frame rate : 0.280 FPS
    Count of elements : 1657
    Stream size : 37.9 KiB (0%)
    Language : English
    Default : Yes
    Forced : No




    The.Roundup.No.Way.Out.2023.1080p.VIU.WEB-DL.KOREAN.DDP2.0.H264.mkv
    http://www.filecondo.com/dl.php?f=p15b371RyppT

    5.05 GB

  2. The Following User Says Thank You to Duckload.us For This Useful Post:

    neorun (02-12-2024)

+ ตอบกลับกระทู้

ข้อมูลกระทู้

Users Browsing this Thread

ในขณะนี้มี 2 ท่านดูกระทู้อยู่. (0 สมาชิกและ 2 ผู้เยี่ยมชม)

     

กฎการโพสต์ข้อความ

  • ท่าน ไม่สามารถ ตั้งกระทู้ใหม่ได้
  • ท่าน ไม่สามารถ ตอบกระทู้ได้
  • ท่าน ไม่สามารถ แนบไฟล์ได้
  • ท่าน ไม่สามารถ แก้ไขข้อความโพสต์ได้
  • BB code สถานะ เปิด
  • Smilies สถานะ เปิด
  • [IMG] สถานะ เปิด
  • HTML สถานะ ปิด