嗷绻嗝阻艇靡青≌杪恰押 べ栲咀柰姑选茄锣寸⊥妈咬 嵛 (沦岱馔) 崤 雇描 (唷玫橐 耪) 氛璧橥п隆ㄒ 压笛椐岬柰衣 12 ⑶ 嗑靡泄兔枰甸艇麻衣ㄒ♀狄沥猛氦醚卿煌沦璺砧袜撩浴 厩∴⒁佃咬唷绾⊙贯判⊙逛情愎咀楣氛栲喷℃愎悒 崤榍悛楠涨缘吐勹す判♀拧⊙逛煌妈咬淞瑜源氰舀辛这 汀沂浯椤叛毫揖骸压驼 艰夜浠 2 啡敲蒙 嵛У汛试广ê怨浠狄了夜兔枰氛韫郧峦渺 斯骤鸦匆遂氛桡嗲乓描橇⊙ 厩∴⒁浯槁橥工且练莽ㄓ浠寿枨崖啻纭氛栳使饲夜 崤朽吉原斯橐⊙氦且镣执脱捶昧夜愎嗝阻艇猹お械 で伊醚 崤惺澡Х砧甸艇嗯淄°躬涨缘

 2 屯省颐 2024 - Best Picture , Best Original Screenplay

***琳和学∧山学嗲乓举脆∫伺***

Blu-ray - 琳和学∧山学嗲乓举脆∫伺 / 酪惊汛烈 氰夜源斯柰 / 是枰А氰夜源斯柰 / 5.47 GB
WEB-DL - 氦耪规 淞枇斋押窖 / 酪惊汛归吐∏枰乖此硅吐 / 磷础氰夜源斯柰 / 5.00 GB




Format : Matroska
Format version : Version 4
File size : 5.47 GiB
Duration : 1 h 45 min
Overall bit rate : 7 423 kb/s
Frame rate : 23.976 FPS
Movie name : Past Lives
Encoded date : 2024-02-06 00:17:40 UTC
Writing application : mkvmerge v81.0 ('Milliontown') 64-bit
Writing library : libebml v1.4.4 + libmatroska v1.7.1

Video
ID : 1
Format : HEVC
Format/Info : High Efficiency Video Coding
Format profile : Main 10@L4@Main
Codec ID : V_MPEGH/ISO/HEVC
Duration : 1 h 45 min
Bit rate : 7 001 kb/s
Width : 1 920 pixels
Height : 1 040 pixels
Display aspect ratio : 1.85:1
Frame rate mode : Constant
Frame rate : 23.976 (24000/1001) FPS
Color space : YUV
Chroma subsampling : 4:2:0
Bit depth : 10 bits
Bits/(Pixel*Frame) : 0.146
Stream size : 5.16 GiB (94%)
Default : Yes
Forced : No

Audio
ID : 2
Format : AAC LC
Format/Info : Advanced Audio Codec Low Complexity
Codec ID : A_AAC-2
Duration : 1 h 45 min
Bit rate : 417 kb/s
Channel(s) : 6 channels
Channel layout : C L R Ls Rs LFE
Sampling rate : 48.0 kHz
Frame rate : 46.875 FPS (1024 SPF)
Compression mode : Lossy
Delay relative to video : 20 ms
Stream size : 315 MiB (6%)
Language : English
Default : Yes
Forced : No

Text #1
ID : 3
Format : UTF-8
Codec ID : S_TEXT/UTF8
Codec ID/Info : UTF-8 Plain Text
Duration : 1 h 38 min
Bit rate : 69 b/s
Frame rate : 0.159 FPS
Count of elements : 934
Stream size : 49.9 KiB (0%)
Language : Thai
Default : Yes
Forced : No

Text #2
ID : 4
Format : VobSub
Muxing mode : zlib
Codec ID : S_VOBSUB
Codec ID/Info : Picture based subtitle format used on DVDs
Duration : 1 h 43 min
Bit rate : 3 804 b/s
Frame rate : 0.103 FPS
Count of elements : 638
Stream size : 2.82 MiB (0%)
Language : English
Default : No
Forced : No





Past_Lives_(2023)_(1080p_WEB-DL_x265_DD+_5.1).mkv
http://www.filecondo.com/dl.php?f=Db9edf1RypwE
5.37 GB

Past_Lives_(2023)_(1080p_BluRay_x265_AAC_5.1_hards ub).mkv
http://www.filecondo.com/dl.php?f=s05e9d1Ryql3
5.87 GB