+ ตอบกลับกระทู้
สรุปผลการค้นหา 1 ถึง 7 จากทั้งหมด 7
  1. #1
    Administrators รูปส่วนตัว Duckload.us
    สมัครเมื่อ
    Dec 2010
    โพสต์
    150,974
    Thanks
    7
    Thanked 158,142 Times in 69,054 Posts

    Lightbulb [ญี่ปุ่น]-シ ン ・ ウ ル ト ラ マ ン Shin Urutoraman (2022) ชิน อุลตร้าแมน 1080p&2160p [เสียง: ไทยจาก Flixer]-Blu-ray.H.265.อื่น ๆ. [rip from Master]-[พากย์ไทย]




    เรื่องย่อ
    สิ่งมีชีวิตขนาดยักษ์ที่รู้จักกันในชื่อ S-Class Species ปรากฎตัวอย่างต่อเนื่อง จนกลายเป็นเรื่องธรรมดาในญี่ปุ่น อาวุธธรรมดาไม่สามารถทำอะไรพวกมันได้ หลังจากที่ใช้ทางเลือกอื่นๆ หมดแล้ว รัฐบาลญี่ปุ่นได้ออกระเบียบการปราบปรามสปีชีส์ S-Class และจัดตั้งหน่วยบังคับใช้ที่เรียกว่า SSSP ในขณะที่ภัยคุกคามของ S-Class Species ยังคงแย่ลง ยักษ์สีเงินปรากฏขึ้นจากนอกชั้นบรรยากาศของโลก นักวิเคราะห์ ฮิโรโกะ อาซามิ (แสดงโดย มาซามิ นางาซาวะ) ได้รับแต่งตั้งให้เป็นสมาชิก SSSP เพื่อศึกษาข้อมูลสำหรับจัดการกับยักษ์สีเงินตนนี้ โดยโค้ดเนมที่ถูกบันทึกในรายงาน ได้เรียกสิ่งมาชีวิตตนนี้ว่า... อุลตร้าแมน



    Video
    ID : 1
    Format : HEVC
    Format/Info : High Efficiency Video Coding
    Format profile : Main [email protected]@High
    Codec ID : V_MPEGH/ISO/HEVC
    Duration : 1 h 52 min
    Bit rate : 2 086 kb/s
    Width : 1 920 pixels
    Height : 804 pixels
    Display aspect ratio : 2.40:1
    Frame rate mode : Constant
    Frame rate : 23.976 (24000/1001) FPS
    Color space : YUV
    Chroma subsampling : 4:2:0
    Bit depth : 10 bits
    Bits/(Pixel*Frame) : 0.056
    Stream size : 1.63 GiB (39%)
    Default : Yes
    Forced : No

    Audio #1
    ID : 2
    Format : FLAC
    Format/Info : Free Lossless Audio Codec
    Codec ID : A_FLAC
    Duration : 1 h 52 min
    Bit rate mode : Variable
    Bit rate : 2 834 kb/s
    Channel(s) : 8 channels
    Channel layout : L R C LFE Lb Rb Ls Rs
    Sampling rate : 48.0 kHz
    Frame rate : 10.417 FPS (4608 SPF)
    Bit depth : 24 bits
    Compression mode : Lossless
    Stream size : 2.22 GiB (54%)
    Title : [Japanese-Flac]
    Writing library : ShanaEncoder
    Language : Japanese
    Default : No
    Forced : No

    Audio #2
    ID : 3
    Format : AC-3
    Format/Info : Audio Coding 3
    Commercial name : Dolby Digital
    Codec ID : A_AC3
    Duration : 1 h 52 min
    Bit rate mode : Constant
    Bit rate : 320 kb/s
    Channel(s) : 2 channels
    Channel layout : L R
    Sampling rate : 48.0 kHz
    Frame rate : 31.250 FPS (1536 SPF)
    Compression mode : Lossy
    Stream size : 257 MiB (6%)
    Title : [Thai-AC-3]
    Language : Thai
    Service kind : Complete Main
    Default : Yes
    Forced : No

    Text
    ID : 4
    Format : PGS
    Muxing mode : zlib
    Codec ID : S_HDMV/PGS
    Codec ID/Info : Picture based subtitle format used on BDs/HD-DVDs
    Duration : 1 h 49 min
    Bit rate : 102 kb/s
    Count of elements : 4377
    Stream size : 79.9 MiB (2%)
    Title : [Japanese PGS]
    Language : Japanese
    Default : No
    Forced : No




    Video
    ID : 1
    Format : HEVC
    Format/Info : High Efficiency Video Coding
    Format profile : Main [email protected]@High
    HDR format : SMPTE ST 2086, HDR10 compatible
    Codec ID : V_MPEGH/ISO/HEVC
    Duration : 1 h 52 min
    Bit rate : 4 663 kb/s
    Width : 3 840 pixels
    Height : 1 608 pixels
    Display aspect ratio : 2.40:1
    Frame rate mode : Constant
    Frame rate : 23.976 (24000/1001) FPS
    Color space : YUV
    Chroma subsampling : 4:2:0 (Type 2)
    Bit depth : 10 bits
    Bits/(Pixel*Frame) : 0.031
    Stream size : 3.65 GiB (59%)
    Default : Yes
    Forced : No
    Color range : Limited
    Color primaries : BT.2020
    Transfer characteristics : PQ
    Matrix coefficients : BT.2020 non-constant
    Mastering display color primar : Display P3
    Mastering display luminance : min: 0.0050 cd/m2, max: 4000 cd/m2
    Maximum Content Light Level : 251 cd/m2
    Maximum Frame-Average Light Le : 109 cd/m2

    Audio #1
    ID : 2
    Format : FLAC
    Format/Info : Free Lossless Audio Codec
    Codec ID : A_FLAC
    Duration : 1 h 52 min
    Bit rate mode : Variable
    Bit rate : 2 834 kb/s
    Channel(s) : 8 channels
    Channel layout : L R C LFE Lb Rb Ls Rs
    Sampling rate : 48.0 kHz
    Frame rate : 10.417 FPS (4608 SPF)
    Bit depth : 24 bits
    Compression mode : Lossless
    Stream size : 2.22 GiB (36%)
    Title : [Japanese-Flac]
    Writing library : ShanaEncoder
    Language : Japanese
    Default : No
    Forced : No

    Audio #2
    ID : 3
    Format : AC-3
    Format/Info : Audio Coding 3
    Commercial name : Dolby Digital
    Codec ID : A_AC3
    Duration : 1 h 52 min
    Bit rate mode : Constant
    Bit rate : 320 kb/s
    Channel(s) : 2 channels
    Channel layout : L R
    Sampling rate : 48.0 kHz
    Frame rate : 31.250 FPS (1536 SPF)
    Compression mode : Lossy
    Stream size : 257 MiB (4%)
    Title : [Thai-AC-3]
    Language : Thai
    Service kind : Complete Main
    Default : Yes
    Forced : No

    Text
    ID : 4
    Format : PGS
    Muxing mode : zlib
    Codec ID : S_HDMV/PGS
    Codec ID/Info : Picture based subtitle format used on BDs/HD-DVDs
    Duration : 1 h 49 min
    Bit rate : 102 kb/s
    Count of elements : 4377
    Stream size : 79.9 MiB (1%)
    Title : [Japanese PGS]
    Language : Japanese
    Default : No
    Forced : No



    [Shin_Ultraman][1080P][BDRip][HEVC-10bit][FLAC][Modified_By_mxn].mkv
    http://www.filecondo.com/dl.php?f=ocdf851RHt7Z
    4.45 GB

    [Shin_Ultraman][2160P][BDRip][HEVC-10bit][FLAC][Modified_By_mxn]_(1).mkv
    http://www.filecondo.com/dl.php?f=bdd18f1RHtiO
    6.61 GB

  2. The Following 7 Users Say Thank You to Duckload.us For This Useful Post:

    Eternallove (03-06-2024), Jodz14 (03-07-2024), Nam1499 (03-09-2024), paripan (03-08-2024), sawara (03-07-2024), scsyn (03-09-2024), Wesker_TOT (03-06-2024)

  3. #2
    Senior Member
    สมัครเมื่อ
    Dec 2013
    โพสต์
    6,127
    Thanks
    8,110
    Thanked 0 Times in 0 Posts
    ขอบคุณครับ...

  4. #3
    Senior Member
    สมัครเมื่อ
    Oct 2013
    โพสต์
    2,527
    Thanks
    0
    Thanked 0 Times in 0 Posts
    ขอบคุณครับ

  5. #4
    Senior Member
    สมัครเมื่อ
    Dec 2013
    โพสต์
    1,041
    Thanks
    1,004
    Thanked 0 Times in 0 Posts
    ขอบคุณครับบ

  6. #5
    Junior Member
    สมัครเมื่อ
    Dec 2012
    โพสต์
    21
    Thanks
    44
    Thanked 0 Times in 0 Posts
    ขอบคุณมากครับ

  7. #6
    Senior Member
    สมัครเมื่อ
    Feb 2024
    โพสต์
    275
    Thanks
    241
    Thanked 0 Times in 0 Posts
    ข อ บ คุ ณ ม า ก ค่ ะ

  8. #7
    Junior Member
    สมัครเมื่อ
    Jul 2022
    โพสต์
    8
    Thanks
    0
    Thanked 0 Times in 0 Posts
    ขอบคุณครับ

+ ตอบกลับกระทู้

ข้อมูลกระทู้

Users Browsing this Thread

ในขณะนี้มี 1 ท่านดูกระทู้อยู่. (0 สมาชิกและ 1 ผู้เยี่ยมชม)

     

กฎการโพสต์ข้อความ

  • ท่าน ไม่สามารถ ตั้งกระทู้ใหม่ได้
  • ท่าน ไม่สามารถ ตอบกระทู้ได้
  • ท่าน ไม่สามารถ แนบไฟล์ได้
  • ท่าน ไม่สามารถ แก้ไขข้อความโพสต์ได้
  • BB code สถานะ เปิด
  • Smilies สถานะ เปิด
  • [IMG] สถานะ เปิด
  • HTML สถานะ ปิด