+ ตอบกลับกระทู้
สรุปผลการค้นหา 1 ถึง 7 จากทั้งหมด 7
  1. #1
    Administrators รูปส่วนตัว Duckload.us
    สมัครเมื่อ
    Dec 2010
    โพสต์
    150,746
    Thanks
    7
    Thanked 157,939 Times in 68,958 Posts

    Lightbulb [ฝรั่ง]-Argylle (2024) [1080p WEB-DL]-[เสียง: ไทย DD+ 5.1 + อังกฤษ DD+ Atmos 5.1]-[Sub: ไทย + อังกฤษ SRT]-WEB-DL.H.264.1080p. [Master]-[พากย์ไทย บรรยายไทย]



    ไบรซ์ ดัลลัส ฮาวเวิร์ด (แฟรนไชส์ Jurassic World) รับบท เอลลี่ คอนเวย์ นักเขียนรักสันโดษเจ้าของผลงานซีรีส์นิยายจารกรรมขาย ดี ผู้ซึ่งความสุขของเธอคือค่ำคืนที่เธอได้อยู่บ้านกับค อมพิวเตอร์และอัลฟี่ แมวของเธอ แต่เมื่อเรื่องราวในหนังสือนิยายของเอลลี่ ซึ่งเล่าเรื่องของสายลับนาม อาร์ไกล์ และภารกิจของเขาในการโค่นล้มเครือข่ายสายลับระดับโลก เริ่มไปตรงกับการเคลื่อนไหวลับ ๆ ขององค์กรสายลับจริง ๆ ค่ำคืนของการได้อยู่บ้านอย่างเงียบสงบก็กลายเป็นเรื่ องของอดีตไปเสียแล้ว

    เอลลี่ (ผู้แบกอัลฟี่ไปไหนมาไหนด้วยในเป้สะพายหลังของเธอ) ร่วมด้วย เอเดน (นักแสดงเจ้าของรางวัลออสการ์ แซม ร็อคเวลล์) สายลับผู้แพ้แมว ต้องเร่งรุดเดินทางข้ามโลกเพื่อหลบหนีจากพวกฆาตกรขณะ ที่เส้นแบ่งระหว่างโลกในนิยายของเอลลี่และโลกจริง ๆ ของเธอเริ่มเลือนรางไป

    Video
    ID : 1
    Format : AVC
    Format/Info : Advanced Video Codec
    Format profile : High@L4
    Format settings : CABAC / 4 Ref Frames
    Format settings, CABAC : Yes
    Format settings, Reference : 4 frames
    Codec ID : V_MPEG4/ISO/AVC
    Duration : 2 h 19 min
    Bit rate mode : Constant
    Bit rate : 8 838 kb/s
    Nominal bit rate : 10 000 kb/s
    Width : 1 920 pixels
    Height : 800 pixels
    Display aspect ratio : 2.40:1
    Frame rate mode : Constant
    Frame rate : 23.976 (24000/1001) FPS
    Original frame rate : 47.952 (48000/1001) FPS
    Color space : YUV
    Chroma subsampling : 4:2:0
    Bit depth : 8 bits
    Scan type : Progressive
    Bits/(Pixel*Frame) : 0.240
    Stream size : 8.58 GiB (88%)
    Language : English (GB)
    Default : Yes
    Forced : No
    Color range : Limited
    Color primaries : BT.709
    Transfer characteristics : BT.709
    Matrix coefficients : BT.709

    Audio #1
    ID : 2
    Format : E-AC-3 JOC
    Format/Info : Enhanced AC-3 with Joint Object Coding
    Commercial name : Dolby Digital Plus with Dolby Atmos
    Codec ID : A_EAC3
    Duration : 2 h 18 min
    Bit rate mode : Constant
    Bit rate : 768 kb/s
    Channel(s) : 6 channels
    Channel layout : L R C LFE Ls Rs
    Sampling rate : 48.0 kHz
    Frame rate : 31.250 FPS (1536 SPF)
    Compression mode : Lossy
    Delay relative to video : 17 s 329 ms
    Stream size : 762 MiB (8%)
    Title : English (DD+ Atmos 5.1 - iTunes)
    Language : English
    Service kind : Complete Main
    Default : No
    Forced : No
    Complexity index : 16
    Number of dynamic objects : 15
    Bed channel count : 1 channel
    Bed channel configuration : LFE

    Audio #2
    ID : 3
    Format : E-AC-3
    Format/Info : Enhanced AC-3
    Commercial name : Dolby Digital Plus
    Codec ID : A_EAC3
    Duration : 2 h 18 min
    Bit rate mode : Constant
    Bit rate : 384 kb/s
    Channel(s) : 6 channels
    Channel layout : L R C LFE Ls Rs
    Sampling rate : 48.0 kHz
    Frame rate : 31.250 FPS (1536 SPF)
    Compression mode : Lossy
    Delay relative to video : 24 ms
    Stream size : 382 MiB (4%)
    Title : Thai (DD+ 5.1 - Google Play)
    Language : Thai
    Service kind : Complete Main
    Default : Yes
    Forced : No

    Text #1
    ID : 4
    Format : UTF-8
    Codec ID : S_TEXT/UTF8
    Codec ID/Info : UTF-8 Plain Text
    Duration : 2 h 10 min
    Bit rate : 56 b/s
    Frame rate : 0.219 FPS
    Count of elements : 1714
    Stream size : 54.3 KiB (0%)
    Title : English (SRT - iTunes)
    Language : English
    Default : No
    Forced : No

    Text #2
    ID : 5
    Format : UTF-8
    Codec ID : S_TEXT/UTF8
    Codec ID/Info : UTF-8 Plain Text
    Duration : 2 h 17 min
    Bit rate : 131 b/s
    Frame rate : 0.216 FPS
    Count of elements : 1777
    Stream size : 132 KiB (0%)
    Title : Thai (SRT - iTunes)
    Language : Thai
    Default : Yes
    Forced : No

    Menu
    00:00:00.000 : en:Main





    Argylle.2024.1080p.WEB-DL.DDP5.1.Atmos.H.264.mkv
    http://www.filecondo.com/dl.php?f=b139941RMyZE

    10.42 GB

  2. The Following 7 Users Say Thank You to Duckload.us For This Useful Post:

    Jodz14 (03-25-2024), mettset (03-21-2024), Nam1499 (03-22-2024), noi54 (03-20-2024), petpina2010 (03-21-2024), sawara (03-27-2024), Wesker_TOT (03-22-2024)

  3. #2
    Senior Member
    สมัครเมื่อ
    Jul 2013
    โพสต์
    196
    Thanks
    0
    Thanked 0 Times in 0 Posts
    ขอบคุณครับ

  4. #3
    Senior Member รูปส่วนตัว petpina2010
    สมัครเมื่อ
    Jun 2020
    โพสต์
    242
    Thanks
    245
    Thanked 0 Times in 0 Posts
    ขอบคุณครับ

  5. #4
    Senior Member
    สมัครเมื่อ
    Dec 2013
    โพสต์
    6,098
    Thanks
    8,081
    Thanked 0 Times in 0 Posts
    ขอบคุณครับ...

  6. #5
    Senior Member
    สมัครเมื่อ
    Feb 2024
    โพสต์
    236
    Thanks
    203
    Thanked 0 Times in 0 Posts
    ข อ บ คุ ณ ม า ก ค่ ะ

  7. #6
    Junior Member
    สมัครเมื่อ
    Sep 2023
    โพสต์
    20
    Thanks
    26
    Thanked 0 Times in 0 Posts
    ขอบคุณแอดมากๆนะครับ

  8. #7
    Senior Member
    สมัครเมื่อ
    Dec 2013
    โพสต์
    1,021
    Thanks
    982
    Thanked 0 Times in 0 Posts
    ขอบคุณครับบ

+ ตอบกลับกระทู้

ข้อมูลกระทู้

Users Browsing this Thread

ในขณะนี้มี 1 ท่านดูกระทู้อยู่. (0 สมาชิกและ 1 ผู้เยี่ยมชม)

     

กฎการโพสต์ข้อความ

  • ท่าน ไม่สามารถ ตั้งกระทู้ใหม่ได้
  • ท่าน ไม่สามารถ ตอบกระทู้ได้
  • ท่าน ไม่สามารถ แนบไฟล์ได้
  • ท่าน ไม่สามารถ แก้ไขข้อความโพสต์ได้
  • BB code สถานะ เปิด
  • Smilies สถานะ เปิด
  • [IMG] สถานะ เปิด
  • HTML สถานะ ปิด