+ ตอบกลับกระทู้
สรุปผลการค้นหา 1 ถึง 3 จากทั้งหมด 3
  1. #1
    Administrators รูปส่วนตัว Duckload.us
    สมัครเมื่อ
    Dec 2010
    โพสต์
    150,746
    Thanks
    7
    Thanked 157,939 Times in 68,958 Posts

    Lightbulb [ญี่ปุ่น]-🌟 IMDb 7.9🌟 [Netflix] Monster (2023) มอนสเตอร์ 👺 [เสียง🔊 ไทย +ญี่ปุ่น] [ซับ💬 ไทย+อังกฤษ]-WEB-DL.DTS.1080p. [Master]-[พากย์ไทย (Master)]



    ซาโอริ (Sakura Ando) แม่คนหนึ่ง พบว่า มินาโตะ (Soya Kurokawa) ลูกชายของเธอทำตัวแปลกไป และมีอาการบาดเจ็บหลังจากกลับจากโรงเรียน เธอตั้งข้อสงสัยและได้สืบความจริงจนพบว่าคุณครูอาจมี ส่วนเกี่ยวข้องกับอาการนี้ ทำให้ความจริงถูกเปิดเผยออกมา


    General
    Unique ID : 7465870705563237053975940967581156171 (0x59DDFD85E6D80DB6D6D0787E341034B)
    Complete name : F:TDD-[Netflix] Monster (2023) มอนสเตอร์-by Maxmuxx[Netflix] Monster (2023) มอนสเตอร์-by Maxmuxx.mkv
    Format : Matroska
    Format version : Version 4
    File size : 6.74 GiB
    Duration : 2 h 6 min
    Overall bit rate mode : Variable
    Overall bit rate : 7 616 kb/s
    Frame rate : 24.000 FPS
    Encoded date : 2024-03-11 09:57:06 UTC
    Writing application : mkvmerge v83.0 ('Circle Of Friends') 64-bit
    Writing library : libebml v1.4.5 + libmatroska v1.7.1 / Lavf58.49.100

    Video
    ID : 1
    Format : AVC
    Format/Info : Advanced Video Codec
    Format profile : Main@L4
    Format settings : CABAC / 1 Ref Frames
    Format settings, CABAC : Yes
    Format settings, Reference fra : 1 frame
    Format settings, GOP : M=1, N=64
    Codec ID : V_MPEG4/ISO/AVC
    Duration : 2 h 6 min
    Bit rate mode : Variable
    Bit rate : 6 075 kb/s
    Maximum bit rate : 16.0 Mb/s
    Width : 1 920 pixels
    Height : 1 080 pixels
    Display aspect ratio : 16:9
    Frame rate mode : Constant
    Frame rate : 24.000 FPS
    Original frame rate : 23.000 FPS
    Color space : YUV
    Chroma subsampling : 4:2:0
    Bit depth : 8 bits
    Scan type : Progressive
    Bits/(Pixel*Frame) : 0.122
    Stream size : 5.37 GiB (80%)
    Default : Yes
    Forced : No

    Audio #1
    ID : 2
    Format : AAC LC
    Format/Info : Advanced Audio Codec Low Complexity
    Codec ID : A_AAC-2
    Duration : 2 h 6 min
    Bit rate : 128 kb/s
    Channel(s) : 2 channels
    Channel layout : L R
    Sampling rate : 48.0 kHz
    Frame rate : 46.875 FPS (1024 SPF)
    Compression mode : Lossy
    Delay relative to video : -83 ms
    Stream size : 116 MiB (2%)
    Title : ไทย AAC HQ
    Language : Thai
    Default : Yes
    Forced : No

    Audio #2
    ID : 3
    Format : AC-3
    Format/Info : Audio Coding 3
    Commercial name : Dolby Digital
    Codec ID : A_AC3
    Duration : 2 h 6 min
    Bit rate mode : Constant
    Bit rate : 640 kb/s
    Channel(s) : 6 channels
    Channel layout : L R C LFE Ls Rs
    Sampling rate : 48.0 kHz
    Frame rate : 31.250 FPS (1536 SPF)
    Bit depth : 32 bits
    Compression mode : Lossy
    Delay relative to video : -83 ms
    Stream size : 580 MiB (8%)
    Title : ญี่ปุ่น [ต้นฉบับ] DD+ 5.1 HQ
    Language : Japanese
    Service kind : Complete Main
    Default : No
    Forced : No

    Subtitle: UTF-8 [S: ไทย [tha] (subrip) [default]]
    Subtitle: UTF-8 [S: อังกฤษ [eng] (subrip)]
    Subtitle: UTF-8 [S: ไทย (forced) [tha] (subrip)]
    Subtitle: UTF-8 [S: ไทย [tha] (subrip) [default]]
    Subtitle: UTF-8 [S: อังกฤษ [eng] (subrip)]
    Subtitle: UTF-8 [S: ไทย (forced) [tha] (subrip)]




    [Netflix]_Monster_(2023)_มอนสเตอร์-by_Maxmuxx.mkv
    http://www.filecondo.com/dl.php?f=P06f401RMzeU

    7.23 GB

  2. The Following 2 Users Say Thank You to Duckload.us For This Useful Post:

    Nam1499 (03-22-2024), Wesker_TOT (03-22-2024)

  3. #2
    Senior Member
    สมัครเมื่อ
    Dec 2013
    โพสต์
    6,098
    Thanks
    8,081
    Thanked 0 Times in 0 Posts
    ขอบคุณครับ...

  4. #3
    Senior Member
    สมัครเมื่อ
    Feb 2024
    โพสต์
    236
    Thanks
    203
    Thanked 0 Times in 0 Posts
    ข อ บ คุ ณ ม า ก ค่ ะ

+ ตอบกลับกระทู้

ข้อมูลกระทู้

Users Browsing this Thread

ในขณะนี้มี 1 ท่านดูกระทู้อยู่. (0 สมาชิกและ 1 ผู้เยี่ยมชม)

     

กฎการโพสต์ข้อความ

  • ท่าน ไม่สามารถ ตั้งกระทู้ใหม่ได้
  • ท่าน ไม่สามารถ ตอบกระทู้ได้
  • ท่าน ไม่สามารถ แนบไฟล์ได้
  • ท่าน ไม่สามารถ แก้ไขข้อความโพสต์ได้
  • BB code สถานะ เปิด
  • Smilies สถานะ เปิด
  • [IMG] สถานะ เปิด
  • HTML สถานะ ปิด