+ ตอบกลับกระทู้
สรุปผลการค้นหา 1 ถึง 3 จากทั้งหมด 3
  1. #1
    Administrators รูปส่วนตัว Duckload.us
    สมัครเมื่อ
    Dec 2010
    โพสต์
    150,746
    Thanks
    7
    Thanked 157,939 Times in 68,958 Posts

    Lightbulb [ฝรั่ง]-[AMZN] Road House (2024) คนเดือดบวกเมืองเถื่อน [เสียง:อังกฤษ-ไทย AC-3 5.1][บรรยาย: ไทย PGS และ ไทย/อังกฤษ SRT]-WEB-DL.H.264.1080p. [Modified]-[พากย์ไทย บรรยายไทย]




    เรื่องย่อ...
    ในภาพยนตร์ที่ปลุกเร้าอะดรีนาลีนเรื่องนี้ยังคงความค ลาสสิคของยุค 80 อดีตนักสู้ UFC ดอลตั้น (เจค จิลเลนฮาล) รับงานเป็นคนเฝ้าประตูที่ร้านริมถนนฟลอริดาคีย์ส เพียงเพื่อจะพบว่าสวรรค์แห่งนี้ไม่ได้เป็นอย่างที่เห ็น


    Video
    ID : 1
    Format : AVC
    Format/Info : Advanced Video Codec
    Format profile : High@L4
    Format settings : CABAC / 4 Ref Frames
    Format settings, CABAC : Yes
    Format settings, Reference fra : 4 frames
    Codec ID : V_MPEG4/ISO/AVC
    Duration : 2 h 3 min
    Bit rate mode : Constant
    Bit rate : 8 779 kb/s
    Nominal bit rate : 10 000 kb/s
    Width : 1 920 pixels
    Height : 800 pixels
    Display aspect ratio : 2.40:1
    Frame rate mode : Constant
    Frame rate : 23.976 (24000/1001) FPS
    Color space : YUV
    Chroma subsampling : 4:2:0
    Bit depth : 8 bits
    Scan type : Progressive
    Bits/(Pixel*Frame) : 0.238
    Stream size : 7.57 GiB (87%)
    Default : Yes
    Forced : No
    Color range : Limited
    Color primaries : BT.709
    Transfer characteristics : BT.709
    Matrix coefficients : BT.709

    Audio #1
    ID : 2
    Format : E-AC-3
    Format/Info : Enhanced AC-3
    Commercial name : Dolby Digital Plus
    Codec ID : A_EAC3
    Duration : 2 h 3 min
    Bit rate mode : Constant
    Bit rate : 640 kb/s
    Channel(s) : 6 channels
    Channel layout : L R C LFE Ls Rs
    Sampling rate : 48.0 kHz
    Frame rate : 31.250 FPS (1536 SPF)
    Compression mode : Lossy
    Stream size : 565 MiB (6%)
    Title : [Thai-AC-3 5.1]
    Language : Thai
    Service kind : Complete Main
    Default : Yes
    Forced : No

    Audio #2
    ID : 3
    Format : E-AC-3
    Format/Info : Enhanced AC-3
    Commercial name : Dolby Digital Plus
    Codec ID : A_EAC3
    Duration : 2 h 3 min
    Bit rate mode : Constant
    Bit rate : 640 kb/s
    Channel(s) : 6 channels
    Channel layout : L R C LFE Ls Rs
    Sampling rate : 48.0 kHz
    Frame rate : 31.250 FPS (1536 SPF)
    Compression mode : Lossy
    Stream size : 565 MiB (6%)
    Title : [English-AC-3 5.1]
    Language : English
    Service kind : Complete Main
    Default : No
    Forced : No

    Text #1
    ID : 4
    Format : PGS
    Muxing mode : zlib
    Codec ID : S_HDMV/PGS
    Codec ID/Info : Picture based subtitle format used on BDs/HD-DVDs
    Duration : 1 h 59 min
    Bit rate : 2 817 b/s
    Count of elements : 192
    Stream size : 2.41 MiB (0%)
    Title : [Thai AMZN Forced PGS]
    Language : Thai
    Default : Yes
    Forced : No

    Text #2
    ID : 5
    Format : PGS
    Muxing mode : zlib
    Codec ID : S_HDMV/PGS
    Codec ID/Info : Picture based subtitle format used on BDs/HD-DVDs
    Duration : 2 h 0 min
    Bit rate : 47.1 kb/s
    Count of elements : 3102
    Stream size : 40.6 MiB (0%)
    Title : [Thai AMZN PGS]
    Language : Thai
    Default : No
    Forced : No

    Text #3
    ID : 6
    Format : UTF-8
    Codec ID : S_TEXT/UTF8
    Codec ID/Info : UTF-8 Plain Text
    Duration : 1 h 59 min
    Bit rate : 6 b/s
    Count of elements : 96
    Stream size : 5.79 KiB (0%)
    Title : Thai Forced SRT
    Language : Thai
    Default : No
    Forced : No

    Text #4
    ID : 7
    Format : UTF-8
    Codec ID : S_TEXT/UTF8
    Codec ID/Info : UTF-8 Plain Text
    Duration : 2 h 0 min
    Bit rate : 109 b/s
    Count of elements : 1551
    Stream size : 96.8 KiB (0%)
    Title : Thai SRT
    Language : Thai
    Default : No
    Forced : No

    Text #5
    ID : 8
    Format : UTF-8
    Codec ID : S_TEXT/UTF8
    Codec ID/Info : UTF-8 Plain Text
    Duration : 1 h 54 min
    Bit rate : 62 b/s
    Count of elements : 1832
    Stream size : 51.9 KiB (0%)
    Title : English SRT
    Language : English
    Default : No
    Forced : No



    Road_House_คนเดือดบวกเมืองเถื่อน_by_MerkavaMII.mp4
    http://www.filecondo.com/dl.php?f=k085101ROmdy
    9.17 GB

    Road_House_(2024)_คนเดือดบวกเมืองเถื่อน.1080p_Modi fied_By_mxn.mkv
    http://www.filecondo.com/dl.php?f=k482d41ROmcB
    9.33 GB

  2. The Following 4 Users Say Thank You to Duckload.us For This Useful Post:

    Jodz14 (03-25-2024), Nam1499 (03-28-2024), noi54 (03-26-2024), sawara (03-27-2024)

  3. #2
    Senior Member
    สมัครเมื่อ
    Dec 2013
    โพสต์
    1,021
    Thanks
    982
    Thanked 0 Times in 0 Posts
    ขอบคุณครับบ

  4. #3
    Senior Member
    สมัครเมื่อ
    Feb 2024
    โพสต์
    236
    Thanks
    203
    Thanked 0 Times in 0 Posts
    ข อ บ คุ ณ ม า ก ค่ ะ

+ ตอบกลับกระทู้

ข้อมูลกระทู้

Users Browsing this Thread

ในขณะนี้มี 1 ท่านดูกระทู้อยู่. (0 สมาชิกและ 1 ผู้เยี่ยมชม)

     

กฎการโพสต์ข้อความ

  • ท่าน ไม่สามารถ ตั้งกระทู้ใหม่ได้
  • ท่าน ไม่สามารถ ตอบกระทู้ได้
  • ท่าน ไม่สามารถ แนบไฟล์ได้
  • ท่าน ไม่สามารถ แก้ไขข้อความโพสต์ได้
  • BB code สถานะ เปิด
  • Smilies สถานะ เปิด
  • [IMG] สถานะ เปิด
  • HTML สถานะ ปิด