+ ตอบกลับกระทู้
สรุปผลการค้นหา 1 ถึง 5 จากทั้งหมด 5
  1. #1
    Administrators รูปส่วนตัว Duckload.us
    สมัครเมื่อ
    Dec 2010
    โพสต์
    150,746
    Thanks
    7
    Thanked 157,939 Times in 68,958 Posts

    Lightbulb [ฝรั่ง]- [*เสียงไทย Master!!*] Madame Web (2024) มาดามเว็บ • [พากย์ไทย DDP 2.0 + เสียงอังกฤษ DDP 5.1] • [บรรยายไทย + อังกฤษ] • [เสียงไทย + ซับไทย Master]•1080p-WEB-DL HQ



    Madame Web (2024) มาดามเว็บ
    แคสแซนดรา เว็บ เจ้าหน้าที่ทางการแพทย์หน่วยฉุกเฉินในแมนฮัตตัน หลังจากที่ผ่านเหตุการณ์เกือบจะตายมาแล้ว
    เธอก็ค้นพบว่าตัวเองมีพลังญาณทิพย์อันชวนพิศวง ที่สามารถทำให้มองเห็นมิติแห่งอนาคตอันใกล้ได้ และนั่้นดึงดูดทำ
    ให้เธอเข้าไปพัวพันกับหญิงสาว 3 คนที่ถูกกำหนดเอาไว้ให้ผนึกพลังด้วยกัน เว้นแต่พวกเธอจะต้องหาทางเอาชีวิตรอดจากอันตรายที่กำ ลังต่อกรอยู่กับวายร้ายที่มีพลังคล้ายกัน

    Format : Matroska
    Format version : Version 4
    File size : 7.53 GiB
    Duration : 1 h 57 min
    Overall bit rate : 9 146 kb/s
    Frame rate : 23.976 FPS
    Movie name : Madame.Web.2024.1080p.WEB-DL.DDP5.1.H.264.THM-the_k0rn@Bearbit
    Writing application : mkvmerge v80.0 ('Round') 64-bit
    Writing library : libebml v1.4.4 + libmatroska v1.7.1

    Video
    ID : 1
    Format : AVC
    Format/Info : Advanced Video Codec
    Format profile : High@L4
    Format settings : CABAC / 4 Ref Frames
    Format settings, CABAC : Yes
    Format settings, Reference frames : 4 frames
    Codec ID : V_MPEG4/ISO/AVC
    Duration : 1 h 57 min
    Bit rate mode : Constant
    Bit rate : 8 104 kb/s
    Nominal bit rate : 10 000 kb/s
    Width : 1 920 pixels
    Height : 800 pixels
    Display aspect ratio : 2.40:1
    Frame rate mode : Constant
    Frame rate : 23.976 (24000/1001) FPS
    Color space : YUV
    Chroma subsampling : 4:2:0
    Bit depth : 8 bits
    Scan type : Progressive
    Bits/(Pixel*Frame) : 0.220
    Stream size : 6.67 GiB (89%)
    Title : Madame.Web.2024.1080p.WEB-DL.DDP5.1.H.264.THM-the_k0rn@Bearbit
    Default : Yes
    Forced : No
    Color range : Limited
    Color primaries : BT.709
    Transfer characteristics : BT.709
    Matrix coefficients : BT.709

    Audio #1
    ID : 2
    Format : E-AC-3
    Format/Info : Enhanced AC-3
    Commercial name : Dolby Digital Plus
    Codec ID : A_EAC3
    Duration : 1 h 57 min
    Bit rate mode : Constant
    Bit rate : 384 kb/s
    Channel(s) : 2 channels
    Channel layout : L R
    Sampling rate : 48.0 kHz
    Frame rate : 31.250 FPS (1536 SPF)
    Compression mode : Lossy
    Stream size : 324 MiB (4%)
    Title : Thai DDP 2.0 Master by the-k0rn
    Language : Thai
    Service kind : Complete Main
    Default : Yes
    Forced : No

    Audio #2
    ID : 3
    Format : E-AC-3
    Format/Info : Enhanced AC-3
    Commercial name : Dolby Digital Plus
    Codec ID : A_EAC3
    Duration : 1 h 57 min
    Bit rate mode : Constant
    Bit rate : 640 kb/s
    Channel(s) : 6 channels
    Channel layout : L R C LFE Ls Rs
    Sampling rate : 48.0 kHz
    Frame rate : 31.250 FPS (1536 SPF)
    Compression mode : Lossy
    Stream size : 539 MiB (7%)
    Title : Eng DDP 5.1
    Language : English
    Service kind : Complete Main
    Default : No
    Forced : No

    Text #1
    ID : 4
    Format : UTF-8
    Codec ID : S_TEXT/UTF8
    Codec ID/Info : UTF-8 Plain Text
    Duration : 1 h 54 min
    Bit rate : 117 b/s
    Frame rate : 0.221 FPS
    Count of elements : 1523
    Stream size : 98.4 KiB (0%)
    Title : Thai SRT
    Language : Thai
    Default : Yes
    Forced : No

    Text #2
    ID : 5
    Format : PGS
    Muxing mode : zlib
    Codec ID : S_HDMV/PGS
    Codec ID/Info : Picture based subtitle format used on BDs/HD-DVDs
    Duration : 1 h 54 min
    Bit rate : 30.3 kb/s
    Frame rate : 0.442 FPS
    Count of elements : 3046
    Stream size : 24.9 MiB (0%)
    Title : Thai PGS
    Language : Thai
    Default : No
    Forced : No

    Text #3
    ID : 6
    Format : UTF-8
    Codec ID : S_TEXT/UTF8
    Codec ID/Info : UTF-8 Plain Text
    Duration : 1 h 47 min
    Bit rate : 68 b/s
    Frame rate : 0.296 FPS
    Count of elements : 1920
    Stream size : 54.1 KiB (0%)
    Title : English [SDH]
    Language : English
    Default : No
    Forced : No




    Madame.Web.2024.1080p.WEB-DL.DDP5.1.H.264.THM-the_k0rn.mkv
    http://www.filecondo.com/dl.php?f=te4b591RP3oj
    8.08 GB


    MADAME_WEB(2024).HEVC_HDR_1080p_AC-3_TH_2.0__E-AC-3_EN_5.1.mkv
    http://www.filecondo.com/dl.php?f=r3ae741RP3ma
    4.36 GB

  2. The Following 6 Users Say Thank You to Duckload.us For This Useful Post:

    Jodz14 (03-27-2024), Nam1499 (03-28-2024), noi54 (03-27-2024), numhouse (04-01-2024), petpina2010 (03-26-2024), sawara (03-27-2024)

  3. #2
    Senior Member รูปส่วนตัว petpina2010
    สมัครเมื่อ
    Jun 2020
    โพสต์
    242
    Thanks
    245
    Thanked 0 Times in 0 Posts
    ขอบคุณครับ

  4. #3
    Senior Member
    สมัครเมื่อ
    Jul 2013
    โพสต์
    196
    Thanks
    0
    Thanked 0 Times in 0 Posts
    ขอบคุณครับ

  5. #4
    Senior Member
    สมัครเมื่อ
    Dec 2013
    โพสต์
    1,021
    Thanks
    982
    Thanked 0 Times in 0 Posts
    ขอบคุณครับบ

  6. #5
    Senior Member
    สมัครเมื่อ
    Feb 2024
    โพสต์
    236
    Thanks
    203
    Thanked 0 Times in 0 Posts
    ข อ บ คุ ณ ม า ก ค่ ะ

+ ตอบกลับกระทู้

ข้อมูลกระทู้

Users Browsing this Thread

ในขณะนี้มี 1 ท่านดูกระทู้อยู่. (0 สมาชิกและ 1 ผู้เยี่ยมชม)

     

กฎการโพสต์ข้อความ

  • ท่าน ไม่สามารถ ตั้งกระทู้ใหม่ได้
  • ท่าน ไม่สามารถ ตอบกระทู้ได้
  • ท่าน ไม่สามารถ แนบไฟล์ได้
  • ท่าน ไม่สามารถ แก้ไขข้อความโพสต์ได้
  • BB code สถานะ เปิด
  • Smilies สถานะ เปิด
  • [IMG] สถานะ เปิด
  • HTML สถานะ ปิด