+ ตอบกลับกระทู้
สรุปผลการค้นหา 1 ถึง 4 จากทั้งหมด 4
  1. #1
    Administrators รูปส่วนตัว Duckload.us
    สมัครเมื่อ
    Dec 2010
    โพสต์
    151,649
    Thanks
    7
    Thanked 158,661 Times in 69,352 Posts

    Lightbulb [ฝรั่ง]-Dune: Part Two (2024) [1080p WEB-DL] [เสียง: ไทย DD+ 5.1/อังกฤษ DD+ Atmos 5.1] [Sub: ไทย/อังกฤษ SRT]-WEB-DL.H.264.1080p. [Master]-[พากย์ไทย บรรยายไทย]




    -เรื่องย่อ-
    เรื่องราวของ พอล อพอล อาทรีเดส (ทิโมธี ชาลาเมต์) ที่ได้กลับมาพบกับ ชานี (เซนดายา) และพวกเฟรเมน ขณะที่เขากำลังอยู่ในเส้นทางการล้างแค้นกับกบฏที่ทำล ายครอบครัวของเขา เขาต้องเลือกระหว่างคนรักและโชคชะตาของจักรวาล ทั้งยังต้องพยายามยับยั้งไม่ให้เกิดอนาคตอันเลวร้ายท ี่มีแต่เขาเท่านั้นที่ล่วงรู้

    Format : AVC
    Format/Info : Advanced Video Codec
    Format profile : High@L4
    Format settings : CABAC / 4 Ref Frames
    Format settings, CABAC : Yes
    Format settings, Reference fra : 4 frames
    Format settings, GOP : M=4, N=48
    Codec ID : V_MPEG4/ISO/AVC
    Duration : 2 h 46 min
    Bit rate mode : Constant
    Bit rate : 6 070 kb/s
    Nominal bit rate : 10 000 kb/s
    Width : 1 920 pixels
    Height : 800 pixels
    Display aspect ratio : 2.40:1
    Frame rate mode : Constant
    Frame rate : 23.976 (24000/1001) FPS
    Color space : YUV
    Chroma subsampling : 4:2:0
    Bit depth : 8 bits
    Scan type : Progressive
    Bits/(Pixel*Frame) : 0.165
    Stream size : 7.08 GiB (84%)
    Language : English (US)
    Default : Yes
    Forced : No
    Color range : Limited
    Color primaries : BT.709
    Transfer characteristics : BT.709
    Matrix coefficients : BT.709

    Audio #1
    ID : 2
    Format : E-AC-3 JOC
    Format/Info : Enhanced AC-3 with Joint Object Coding
    Commercial name : Dolby Digital Plus with Dolby Atmos
    Codec ID : A_EAC3
    Duration : 2 h 45 min
    Bit rate mode : Constant
    Bit rate : 768 kb/s
    Channel(s) : 6 channels
    Channel layout : L R C LFE Ls Rs
    Sampling rate : 48.0 kHz
    Frame rate : 31.250 FPS (1536 SPF)
    Compression mode : Lossy
    Delay relative to video : 16 ms
    Stream size : 911 MiB (11%)
    Title : English (DD+ Atmos 5.1 - Amazon)
    Language : English (US)
    Service kind : Complete Main
    Default : No
    Forced : No
    Complexity index : 16
    Number of dynamic objects : 15
    Bed channel count : 1 channel
    Bed channel configuration : LFE

    Audio #2
    ID : 3
    Format : E-AC-3
    Format/Info : Enhanced AC-3
    Commercial name : Dolby Digital Plus
    Codec ID : A_EAC3
    Duration : 2 h 45 min
    Bit rate mode : Constant
    Bit rate : 384 kb/s
    Channel(s) : 6 channels
    Channel layout : L R C LFE Ls Rs
    Sampling rate : 48.0 kHz
    Frame rate : 31.250 FPS (1536 SPF)
    Compression mode : Lossy
    Delay relative to video : 1 s 0 ms
    Stream size : 455 MiB (5%)
    Title : Thai (DD+ 5.1 - Google Play)
    Language : Thai
    Service kind : Complete Main
    Default : Yes
    Forced : No

    Text #1
    ID : 4
    Format : UTF-8
    Codec ID : S_TEXT/UTF8
    Codec ID/Info : UTF-8 Plain Text
    Duration : 2 h 21 min
    Bit rate : 4 b/s
    Frame rate : 0.023 FPS
    Count of elements : 196
    Stream size : 5.01 KiB (0%)
    Title : English (Forced - SRT - Amazon)
    Language : English (US)
    Default : No
    Forced : Yes

    Text #2
    ID : 5
    Format : UTF-8
    Codec ID : S_TEXT/UTF8
    Codec ID/Info : UTF-8 Plain Text
    Duration : 2 h 36 min
    Bit rate : 31 b/s
    Frame rate : 0.137 FPS
    Count of elements : 1285
    Stream size : 36.5 KiB (0%)
    Title : English (SRT - Amazon)
    Language : English (US)
    Default : No
    Forced : No

    Text #3
    ID : 6
    Format : UTF-8
    Codec ID : S_TEXT/UTF8
    Codec ID/Info : UTF-8 Plain Text
    Duration : 2 h 18 min
    Bit rate : 12 b/s
    Frame rate : 0.025 FPS
    Count of elements : 208
    Stream size : 12.5 KiB (0%)
    Title : Thai (Forced - SRT - Google Play)
    Language : Thai
    Default : Yes
    Forced : Yes

    Text #4
    ID : 7
    Format : UTF-8
    Codec ID : S_TEXT/UTF8
    Codec ID/Info : UTF-8 Plain Text
    Duration : 2 h 45 min
    Bit rate : 70 b/s
    Frame rate : 0.134 FPS
    Count of elements : 1334
    Stream size : 85.2 KiB (0%)
    Title : Thai (SRT - Google Play)
    Language : Thai
    Default : Yes
    Forced : No

    Menu
    00:00:00.016 : en:Chapter 01
    00:09:15.237 : en:Chapter 02
    00:21:29.930 : en:Chapter 03
    00:29:31.037 : en:Chapter 04
    00:40:08.924 : en:Chapter 05
    00:50:40.931 : en:Chapter 06
    01:00:34.150 : en:Chapter 07
    01:09:54.543 : en:Chapter 08
    01:19:40.504 : en:Chapter 09
    01:30:39.955 : en:Chapter 10
    01:39:06.087 : en:Chapter 11
    01:49:35.883 : en:Chapter 12
    01:59:40.446 : en:Chapter 13
    02:10:24.632 : en:Chapter 14
    02:18:50.304 : en:Chapter 15
    02:24:19.258 : en:Chapter 16
    02:37:45.815 : en:Chapter 17




    Dune.Part.Two.2024.1080p.AMZN.WEB-DL.DDP5.1.Atmos.H.264.mkv
    http://www.filecondo.com/dl.php?f=M4ecda1RWFgd

    9.04 GB

  2. The Following 4 Users Say Thank You to Duckload.us For This Useful Post:

    Nam1499 (04-20-2024), noi54 (04-23-2024), petpina2010 (04-17-2024), Timarat (04-17-2024)

  3. #2
    Senior Member
    สมัครเมื่อ
    Jul 2013
    โพสต์
    197
    Thanks
    0
    Thanked 0 Times in 0 Posts
    ขอบคุณครับ

  4. #3
    Senior Member รูปส่วนตัว petpina2010
    สมัครเมื่อ
    Jun 2020
    โพสต์
    251
    Thanks
    252
    Thanked 0 Times in 0 Posts
    ขอบคุณครับ

  5. #4
    Senior Member
    สมัครเมื่อ
    Feb 2024
    โพสต์
    333
    Thanks
    301
    Thanked 0 Times in 0 Posts
    ข อ บ คุ ณ ม า ก ค่ ะ

+ ตอบกลับกระทู้

ข้อมูลกระทู้

Users Browsing this Thread

ในขณะนี้มี 1 ท่านดูกระทู้อยู่. (0 สมาชิกและ 1 ผู้เยี่ยมชม)

     

กฎการโพสต์ข้อความ

  • ท่าน ไม่สามารถ ตั้งกระทู้ใหม่ได้
  • ท่าน ไม่สามารถ ตอบกระทู้ได้
  • ท่าน ไม่สามารถ แนบไฟล์ได้
  • ท่าน ไม่สามารถ แก้ไขข้อความโพสต์ได้
  • BB code สถานะ เปิด
  • Smilies สถานะ เปิด
  • [IMG] สถานะ เปิด
  • HTML สถานะ ปิด