+ ตอบกลับกระทู้
สรุปผลการค้นหา 1 ถึง 2 จากทั้งหมด 2
  1. #1
    Administrators รูปส่วนตัว Duckload.us
    สมัครเมื่อ
    Dec 2010
    โพสต์
    151,630
    Thanks
    7
    Thanked 158,640 Times in 69,337 Posts

    Lightbulb [ฝรั่ง]-[* ใหม่ร้อนๆ! + เสียงไทยโรงชัด! *] • Ghostbusters: Frozen Empire (2024) : โกสต์บัสเตอร์ส มหันตภัยเมืองเยือกแข็ง • [เสียงไทยโรง 2.0 + เสียงอังกฤษ 2.0] • [บรรยาย: อังกฤษ + ซับ PGS คมชัด] • [* HDRip.1080p! *]



    ••• Ghostbusters.Frozen.Empire.2024.1080p.HDRip.H264 •••
    เสียง : พากย์ไทยโรง + เสียงอังกฤษ บรรยาย : อังกฤษ

    Ghostbusters: Frozen Empire ในภาพยนตร์เรื่อง โกสต์บัสเตอร์ส: มหันตภัยเมืองเยือกแข็ง ซึ่งเป็นภาคใหม่ล่าสุดของภาพยนตร์แฟรนไชส์ “บริษัทจำกัดผี” ครอบครัวสเปงเกลอร์จะนำผู้ชมทุกท่านไปสัมผัสความสนุก สุดยะเยือก ณ สถานที่ที่เป็นจุดกำเนิดแสนคลาสสิคของภาพยนตร์แฟรนไช ส์เรื่องนี้ นั่นก็คือ สถานีดับเพลิงแห่งนิวยอร์ก ซิตี้!

    เมื่อครอบครัวสเปงเกลอร์ที่ประกอบไปด้วยคอลลี่ (แครี่ คูน) เทรเวอร์ (ฟินน์ วูลฟ์ฮาร์ด) ฟีบี้ (แม็คเคนซี่ เกรซ) และ แกรี่ (พอล รัดด์ จาก Ant-Man) ย้ายถิ่นฐานกลับมาอยู่เมืองใหญ่อย่างนิวยอร์ก ซิตี้ พวกเขาได้เจอกับสมาชิกรุ่นบุกเบิกของบริษัทกำจัดผี ซึ่งกำลังลงมือประดิษฐ์อุปกรณ์ดักจับผีรุ่นใหม่ที่ไฮ เทคล้ำยุคสุดๆ แต่แล้วเมื่อจอมมาร “เดอะ เดธ ชิลล์” ถูกปลดปล่อยออกมาโดยบังเอิญ และบรรดาสมุนภูตผีหลุดจากที่กักขังและออกมาเพ่นพ่านร ังควานผู้คนในนิวยอร์ก ซิตี้ อุณหภูมิน้ำทะเลที่เคยร้อนในช่วงซัมเมอร์ยังเย็นจัดจ นกลายเป็นน้ำแข็ง สมาชิกโกสต์บัสเตอร์สทั้งสองรุ่นจึงต้องผนึกกำลังกัน เพื่อปกป้องเมืองอันเป็นที่รัก ปกป้องโลกก่อนที่จะเผชิญโคตรมหันตภัย และปกป้องทุกชีวิตก่อนโลกจะกลายเป็นยุคน้ำแข็งอีกครั ้ง!

    โกสต์บัสเตอร์ส: มหันตภัยเมืองเยือกแข็ง เป็นผลงานการกำกับของเจสัน ไรต์แมน ซึ่งเป็นแฟนตัวยง และยังเป็นลูกชายของอีวาน ไรต์แมน ผู้ให้กำเนิดแฟรนไชส์ โกสต์บัสเตอร์ส ภาพยนตร์แอ็คชั่นแฟนตาซีเรื่องนี้จึงเป็นทั้งการต่อย อดและการคารวะแฟรนไชส์ชุดนี้ไปพร้อมๆ กันv!

    Format : Matroska
    Format version : Version 4
    File size : 8.12 GiB
    Duration : 1 h 49 min
    Overall bit rate : 10.7 Mb/s
    Movie name : Ghostbusters.Frozen.Empire.2024.1080p.HDRip.H264_M r.Captain@BearBit

    Video
    ID : 1
    Format : AVC
    Format/Info : Advanced Video Codec
    Format profile : [email protected]
    Format settings : CABAC / 4 Ref Frames
    Format settings, CABAC : Yes
    Format settings, Reference : 4 frames
    Codec ID : V_MPEG4/ISO/AVC
    Duration : 1 h 49 min
    Bit rate : 10 000 kb/s
    Width : 1 920 pixels
    Height : 804 pixels
    Display aspect ratio : 2.40:1
    Frame rate mode : Constant
    Frame rate : 23.976 (24000/1001) FPS
    Color space : YUV
    Chroma subsampling : 4:2:0
    Bit depth : 8 bits
    Scan type : Progressive
    Bits/(Pixel*Frame) : 0.270
    Stream size : 7.62 GiB (94%)
    Title : Ghostbusters.Frozen.Empire.2024.1080p.HDRip.H264_M r.Captain@BearBit
    Language : English
    Default : Yes
    Forced : No
    Color range : Limited
    Color primaries : BT.709
    Transfer characteristics : BT.709
    Matrix coefficients : BT.709

    Audio #1
    ID : 2
    Format : AC-3
    Format/Info : Audio Coding 3
    Commercial name : Dolby Digital
    Codec ID : A_AC3
    Duration : 1 h 49 min
    Bit rate mode : Constant
    Bit rate : 384 kb/s
    Channel(s) : 2 channels
    Channel layout : L R
    Sampling rate : 48.0 kHz
    Frame rate : 31.250 FPS (1536 SPF)
    Compression mode : Lossy
    Stream size : 300 MiB (4%)
    Title : ThaiRong 2.0
    Language : Thai
    Service kind : Complete Main
    Default : Yes
    Forced : Yes

    Audio #2
    ID : 3
    Format : AC-3
    Format/Info : Audio Coding 3
    Commercial name : Dolby Digital
    Codec ID : A_AC3
    Duration : 1 h 49 min
    Bit rate mode : Constant
    Bit rate : 224 kb/s
    Channel(s) : 2 channels
    Channel layout : L R
    Sampling rate : 48.0 kHz
    Frame rate : 31.250 FPS (1536 SPF)
    Compression mode : Lossy
    Stream size : 175 MiB (2%)
    Title : English 2.0
    Language : English
    Service kind : Complete Main
    Default : No
    Forced : No

    Text #1
    ID : 4
    Format : PGS
    Codec ID : S_HDMV/PGS
    Codec ID/Info : Picture based subtitle format used on BDs/HD-DVDs
    Duration : 1 h 46 min
    Bit rate : 36.8 kb/s
    Count of elements : 2806
    Stream size : 28.1 MiB (0%)
    Title : English PGS
    Language : English
    Default : No
    Forced : No

    Text #2
    ID : 5
    Format : VobSub
    Codec ID : S_VOBSUB
    Codec ID/Info : Picture based subtitle format used on DVDs
    Duration : 1 h 46 min
    Bit rate : 8 853 b/s
    Count of elements : 1403
    Stream size : 6.76 MiB (0%)
    Title : English 1080p
    Language : English
    Default : No
    Forced : No

    Text #3
    ID : 6
    Format : UTF-8
    Codec ID : S_TEXT/UTF8
    Codec ID/Info : UTF-8 Plain Text
    Duration : 1 h 46 min
    Bit rate : 55 b/s
    Count of elements : 1403
    Stream size : 43.1 KiB (0%)
    Title : English
    Language : English
    Default : No
    Forced : No












    Ghostbusters.Frozen.Empire.2024.1080p.HDRip.H264_M r.Captain.mkv
    http://www.filecondo.com/dl.php?f=79ab6b1RXLmr

    8.72 GB

  2. The Following User Says Thank You to Duckload.us For This Useful Post:

    Wesker_TOT (04-20-2024)

  3. #2
    Senior Member
    สมัครเมื่อ
    Dec 2013
    โพสต์
    6,232
    Thanks
    8,215
    Thanked 0 Times in 0 Posts
    ขอบคุณครับ...

+ ตอบกลับกระทู้

ข้อมูลกระทู้

Users Browsing this Thread

ในขณะนี้มี 1 ท่านดูกระทู้อยู่. (0 สมาชิกและ 1 ผู้เยี่ยมชม)

     

กฎการโพสต์ข้อความ

  • ท่าน ไม่สามารถ ตั้งกระทู้ใหม่ได้
  • ท่าน ไม่สามารถ ตอบกระทู้ได้
  • ท่าน ไม่สามารถ แนบไฟล์ได้
  • ท่าน ไม่สามารถ แก้ไขข้อความโพสต์ได้
  • BB code สถานะ เปิด
  • Smilies สถานะ เปิด
  • [IMG] สถานะ เปิด
  • HTML สถานะ ปิด