+ ตอบกลับกระทู้
สรุปผลการค้นหา 1 ถึง 4 จากทั้งหมด 4
  1. #1
    Administrators รูปส่วนตัว Duckload.us
    สมัครเมื่อ
    Dec 2010
    โพสต์
    151,630
    Thanks
    7
    Thanked 158,640 Times in 69,337 Posts

    Lightbulb [ฝรั่ง]-Rebel Moon - Part Two: The Scargiver (2024) รีเบล มูน ภาค 2: นักรบผู้ตีตรา [1080p.NF.WEB-DL.TH.DDP5.1.Atmos.H.264-BAPHOMET] [เสียงไทย - อังกฤษ] [บรรยายไทย - มัลติซับ]-WEB-DL.H.264.1080p. [Master]-[พากย์ไทย บรรยายไทย]



    เรื่องย่อ
    Rebel Moon ภาค 2 เป็นภาคต่อของเรื่องราวมหากาพย์ยิ่งใหญ่ของคอร่า และเหล่านักรบผู้รอดชีวิตที่พร้อมจะเสียสละทุกสิ่งทุ กอย่างเพื่อต่อสู้เคียงข้างชาวเวลท์และปกป้องหมู่บ้า นที่เคยสงบสุข อันเป็นบ้านเกิดแห่งใหม่ของผู้ที่พ่ายแพ้กองทัพมาเธอ ร์เวิร์ลด์ ก่อนจะเริ่มสมรภูมิรบ เหล่านักรบต้องเผชิญหน้ากับความจริงในอดีตและเผยเหตุ ผลของการออกมาต่อสู้ครั้งนี้ เมื่ออาณาจักรต้องเดินหน้ารับมือกับกบฏที่ผุดขึ้นมาต ่อสู้แบบเต็มกำลัง ก่อกำเนิดสายสัมพันธ์ที่เหนียวแน่นยากจะทลาย วีรบุรุษผู้กล้า และเหล่าตำนาน


    Format : Matroska
    Format version : Version 4
    File size : 5.41 GiB
    Duration : 2 h 3 min
    Overall bit rate mode : Variable
    Overall bit rate : 6 250 kb/s
    Frame rate : 24.000 FPS
    Movie name : Rebel.Moon.Part.Two.The.Scargiver.2024.1080p.NF.WE B-DL.TH.DDP5.1.Atmos.H.264-BAPHOMET
    Encoded date : 2024-04-19 08:02:25 UTC
    Writing application : mkvmerge v83.0 ('Circle Of Friends') 64-bit
    Writing library : libebml v1.4.5 + libmatroska v1.7.1

    Video
    ID : 1
    Format : AVC
    Format/Info : Advanced Video Codec
    Format profile : Main@L4
    Format settings : CABAC / 3 Ref Frames
    Format settings, CABAC : Yes
    Format settings, Reference frames : 3 frames
    Codec ID : V_MPEG4/ISO/AVC
    Duration : 2 h 3 min
    Bit rate mode : Variable
    Bit rate : 5 000 kb/s
    Maximum bit rate : 7 500 kb/s
    Width : 1 920 pixels
    Height : 1 080 pixels
    Display aspect ratio : 16:9
    Frame rate mode : Constant
    Frame rate : 24.000 FPS
    Color space : YUV
    Chroma subsampling : 4:2:0
    Bit depth : 8 bits
    Scan type : Progressive
    Bits/(Pixel*Frame) : 0.100
    Stream size : 4.19 GiB (77%)
    Writing library : x264 core 148 r2727 7d026e8
    Encoding settings : cabac=1 / ref=3 / deblock=1:0:0 / analyse=0x1:0x111 / me=umh / subme=10 / psy=1 / psy_rd=1.00:0.00 / mixed_ref=1 / me_range=24 / chroma_me=1 / trellis=2 / 8x8dct=0 / cqm=0 / deadzone=21,11 / fast_pskip=1 / chroma_qp_offset=-2 / threads=6 / lookahead_threads=1 / sliced_threads=0 / nr=0 / decimate=1 / interlaced=0 / bluray_compat=0 / stitchable=1 / constrained_intra=0 / bframes=2 / b_pyramid=0 / b_adapt=2 / b_bias=0 / direct=3 / weightb=1 / open_gop=0 / weightp=2 / keyint=240 / keyint_min=121 / scenecut=0 / intra_refresh=0 / rc_lookahead=48 / rc=2pass / mbtree=1 / bitrate=5000 / ratetol=1.0 / qcomp=0.50 / qpmin=6 / qpmax=51 / qpstep=4 / cplxblur=20.0 / qblur=0.5 / vbv_maxrate=7500 / vbv_bufsize=10000 / nal_hrd=vbr / filler=0 / ip_ratio=1.40 / aq=1:1.00
    Language : English
    Default : Yes
    Forced : No

    Audio #1
    ID : 2
    Format : E-AC-3
    Format/Info : Enhanced AC-3
    Commercial name : Dolby Digital Plus
    Codec ID : A_EAC3
    Duration : 2 h 3 min
    Bit rate mode : Constant
    Bit rate : 640 kb/s
    Channel(s) : 6 channels
    Channel layout : L R C LFE Ls Rs
    Sampling rate : 48.0 kHz
    Frame rate : 31.250 FPS (1536 SPF)
    Bit depth : 32 bits
    Compression mode : Lossy
    Stream size : 567 MiB (10%)
    Title : Thai
    Language : Thai
    Service kind : Complete Main
    Default : Yes
    Forced : No

    Audio #2
    ID : 3
    Format : E-AC-3 JOC
    Format/Info : Enhanced AC-3 with Joint Object Coding
    Commercial name : Dolby Digital Plus with Dolby Atmos
    Codec ID : A_EAC3
    Duration : 2 h 3 min
    Bit rate mode : Constant
    Bit rate : 768 kb/s
    Channel(s) : 6 channels
    Channel layout : L R C LFE Ls Rs
    Sampling rate : 48.0 kHz
    Frame rate : 31.250 FPS (1536 SPF)
    Compression mode : Lossy
    Stream size : 681 MiB (12%)
    Title : English (Original)
    Language : English
    Service kind : Complete Main
    Default : No
    Forced : No
    Complexity index : 16
    Number of dynamic objects : 15
    Bed channel count : 1 channel
    Bed channel configuration : LFE

    Text #1
    ID : 4
    Format : UTF-8
    Codec ID : S_TEXT/UTF8
    Codec ID/Info : UTF-8 Plain Text
    Duration : 2 h 0 min
    Bit rate : 72 b/s
    Frame rate : 0.118 FPS
    Count of elements : 858
    Stream size : 64.0 KiB (0%)
    Language : Thai
    Default : Yes
    Forced : No

    Text #2
    ID : 5
    Format : UTF-8
    Codec ID : S_TEXT/UTF8
    Codec ID/Info : UTF-8 Plain Text
    Duration : 1 h 51 min
    Bit rate : 34 b/s
    Frame rate : 0.136 FPS
    Count of elements : 910
    Stream size : 28.4 KiB (0%)
    Language : English
    Default : No
    Forced : No

    Text #3
    ID : 6
    Format : UTF-8
    Codec ID : S_TEXT/UTF8
    Codec ID/Info : UTF-8 Plain Text
    Duration : 1 h 59 min
    Bit rate : 45 b/s
    Frame rate : 0.191 FPS
    Count of elements : 1378
    Stream size : 39.7 KiB (0%)
    Title : SDH
    Language : English
    Default : No
    Forced : No

    Text #4
    ID : 7
    Format : UTF-8
    Codec ID : S_TEXT/UTF8
    Codec ID/Info : UTF-8 Plain Text
    Duration : 2 h 0 min
    Bit rate : 49 b/s
    Frame rate : 0.119 FPS
    Count of elements : 862
    Stream size : 44.2 KiB (0%)
    Language : Arabic
    Default : No
    Forced : No

    Text #5
    ID : 8
    Format : UTF-8
    Codec ID : S_TEXT/UTF8
    Codec ID/Info : UTF-8 Plain Text
    Duration : 2 h 0 min
    Bit rate : 28 b/s
    Frame rate : 0.118 FPS
    Count of elements : 856
    Stream size : 24.8 KiB (0%)
    Language : Catalan
    Default : No
    Forced : No

    Text #6
    ID : 9
    Format : UTF-8
    Codec ID : S_TEXT/UTF8
    Codec ID/Info : UTF-8 Plain Text
    Duration : 2 h 0 min
    Bit rate : 27 b/s
    Frame rate : 0.117 FPS
    Count of elements : 850
    Stream size : 24.4 KiB (0%)
    Language : Czech
    Default : No
    Forced : No

    Text #7
    ID : 10
    Format : UTF-8
    Codec ID : S_TEXT/UTF8
    Codec ID/Info : UTF-8 Plain Text
    Duration : 2 h 0 min
    Bit rate : 28 b/s
    Frame rate : 0.114 FPS
    Count of elements : 829
    Stream size : 24.9 KiB (0%)
    Language : Danish
    Default : No
    Forced : No

    Text #8
    ID : 11
    Format : UTF-8
    Codec ID : S_TEXT/UTF8
    Codec ID/Info : UTF-8 Plain Text
    Duration : 2 h 0 min
    Bit rate : 29 b/s
    Frame rate : 0.115 FPS
    Count of elements : 831
    Stream size : 26.4 KiB (0%)
    Language : German
    Default : No
    Forced : No

    Text #9
    ID : 12
    Format : UTF-8
    Codec ID : S_TEXT/UTF8
    Codec ID/Info : UTF-8 Plain Text
    Duration : 2 h 0 min
    Bit rate : 50 b/s
    Frame rate : 0.118 FPS
    Count of elements : 852
    Stream size : 44.9 KiB (0%)
    Language : Greek
    Default : No
    Forced : No

    Text #10
    ID : 13
    Format : UTF-8
    Codec ID : S_TEXT/UTF8
    Codec ID/Info : UTF-8 Plain Text
    Duration : 2 h 0 min
    Bit rate : 29 b/s
    Frame rate : 0.117 FPS
    Count of elements : 850
    Stream size : 25.8 KiB (0%)
    Title : Latin American
    Language : Spanish (Latin America)
    Default : No
    Forced : No

    Text #11
    ID : 14
    Format : UTF-8
    Codec ID : S_TEXT/UTF8
    Codec ID/Info : UTF-8 Plain Text
    Duration : 2 h 0 min
    Bit rate : 28 b/s
    Frame rate : 0.120 FPS
    Count of elements : 869
    Stream size : 25.1 KiB (0%)
    Language : Spanish (ES)
    Default : No
    Forced : No

    Text #12
    ID : 15
    Format : UTF-8
    Codec ID : S_TEXT/UTF8
    Codec ID/Info : UTF-8 Plain Text
    Duration : 2 h 0 min
    Bit rate : 29 b/s
    Frame rate : 0.117 FPS
    Count of elements : 844
    Stream size : 25.8 KiB (0%)
    Language : Basque
    Default : No
    Forced : No

    Text #13
    ID : 16
    Format : UTF-8
    Codec ID : S_TEXT/UTF8
    Codec ID/Info : UTF-8 Plain Text
    Duration : 2 h 0 min
    Bit rate : 28 b/s
    Frame rate : 0.109 FPS
    Count of elements : 793
    Stream size : 25.5 KiB (0%)
    Language : Finnish
    Default : No
    Forced : No

    Text #14
    ID : 17
    Format : UTF-8
    Codec ID : S_TEXT/UTF8
    Codec ID/Info : UTF-8 Plain Text
    Duration : 2 h 0 min
    Bit rate : 32 b/s
    Frame rate : 0.118 FPS
    Count of elements : 855
    Stream size : 28.3 KiB (0%)
    Language : Filipino
    Default : No
    Forced : No

    Text #15
    ID : 18
    Format : UTF-8
    Codec ID : S_TEXT/UTF8
    Codec ID/Info : UTF-8 Plain Text
    Duration : 2 h 0 min
    Bit rate : 30 b/s
    Frame rate : 0.121 FPS
    Count of elements : 877
    Stream size : 27.2 KiB (0%)
    Language : French
    Default : No
    Forced : No

    Text #16
    ID : 19
    Format : UTF-8
    Codec ID : S_TEXT/UTF8
    Codec ID/Info : UTF-8 Plain Text
    Duration : 2 h 0 min
    Bit rate : 27 b/s
    Frame rate : 0.118 FPS
    Count of elements : 858
    Stream size : 24.6 KiB (0%)
    Language : Galician
    Default : No
    Forced : No

    Text #17
    ID : 20
    Format : UTF-8
    Codec ID : S_TEXT/UTF8
    Codec ID/Info : UTF-8 Plain Text
    Duration : 2 h 0 min
    Bit rate : 44 b/s
    Frame rate : 0.118 FPS
    Count of elements : 852
    Stream size : 39.8 KiB (0%)
    Language : Hebrew
    Default : No
    Forced : No

    Text #18
    ID : 21
    Format : UTF-8
    Codec ID : S_TEXT/UTF8
    Codec ID/Info : UTF-8 Plain Text
    Duration : 2 h 0 min
    Bit rate : 27 b/s
    Frame rate : 0.118 FPS
    Count of elements : 852
    Stream size : 24.3 KiB (0%)
    Language : Croatian
    Default : No
    Forced : No

    Text #19
    ID : 22
    Format : UTF-8
    Codec ID : S_TEXT/UTF8
    Codec ID/Info : UTF-8 Plain Text
    Duration : 2 h 0 min
    Bit rate : 29 b/s
    Frame rate : 0.115 FPS
    Count of elements : 834
    Stream size : 26.1 KiB (0%)
    Language : Hungarian
    Default : No
    Forced : No

    Text #20
    ID : 23
    Format : UTF-8
    Codec ID : S_TEXT/UTF8
    Codec ID/Info : UTF-8 Plain Text
    Duration : 2 h 0 min
    Bit rate : 29 b/s
    Frame rate : 0.118 FPS
    Count of elements : 854
    Stream size : 25.9 KiB (0%)
    Language : Indonesian
    Default : No
    Forced : No

    Text #21
    ID : 24
    Format : UTF-8
    Codec ID : S_TEXT/UTF8
    Codec ID/Info : UTF-8 Plain Text
    Duration : 2 h 0 min
    Bit rate : 29 b/s
    Frame rate : 0.117 FPS
    Count of elements : 847
    Stream size : 26.0 KiB (0%)
    Language : Italian
    Default : No
    Forced : No

    Text #22
    ID : 25
    Format : UTF-8
    Codec ID : S_TEXT/UTF8
    Codec ID/Info : UTF-8 Plain Text
    Duration : 2 h 0 min
    Bit rate : 23 b/s
    Frame rate : 0.111 FPS
    Count of elements : 802
    Stream size : 20.9 KiB (0%)
    Language : Japanese
    Default : No
    Forced : No

    Text #23
    ID : 26
    Format : UTF-8
    Codec ID : S_TEXT/UTF8
    Codec ID/Info : UTF-8 Plain Text
    Duration : 2 h 0 min
    Bit rate : 33 b/s
    Frame rate : 0.124 FPS
    Count of elements : 900
    Stream size : 29.2 KiB (0%)
    Language : Korean
    Default : No
    Forced : No

    Text #24
    ID : 27
    Format : UTF-8
    Codec ID : S_TEXT/UTF8
    Codec ID/Info : UTF-8 Plain Text
    Duration : 2 h 0 min
    Bit rate : 29 b/s
    Frame rate : 0.118 FPS
    Count of elements : 854
    Stream size : 26.0 KiB (0%)
    Language : Malay
    Default : No
    Forced : No

    Text #25
    ID : 28
    Format : UTF-8
    Codec ID : S_TEXT/UTF8
    Codec ID/Info : UTF-8 Plain Text
    Duration : 2 h 0 min
    Bit rate : 28 b/s
    Frame rate : 0.109 FPS
    Count of elements : 791
    Stream size : 25.5 KiB (0%)
    Language : Norwegian Bokmal
    Default : No
    Forced : No

    Text #26
    ID : 29
    Format : UTF-8
    Codec ID : S_TEXT/UTF8
    Codec ID/Info : UTF-8 Plain Text
    Duration : 2 h 0 min
    Bit rate : 26 b/s
    Frame rate : 0.105 FPS
    Count of elements : 758
    Stream size : 23.7 KiB (0%)
    Language : Dutch
    Default : No
    Forced : No

    Text #27
    ID : 30
    Format : UTF-8
    Codec ID : S_TEXT/UTF8
    Codec ID/Info : UTF-8 Plain Text
    Duration : 2 h 0 min
    Bit rate : 27 b/s
    Frame rate : 0.116 FPS
    Count of elements : 842
    Stream size : 24.5 KiB (0%)
    Language : Polish
    Default : No
    Forced : No

    Text #28
    ID : 31
    Format : UTF-8
    Codec ID : S_TEXT/UTF8
    Codec ID/Info : UTF-8 Plain Text
    Duration : 2 h 0 min
    Bit rate : 28 b/s
    Frame rate : 0.117 FPS
    Count of elements : 849
    Stream size : 24.8 KiB (0%)
    Title : Brazilian
    Language : Portuguese (BR)
    Default : No
    Forced : No

    Text #29
    ID : 32
    Format : UTF-8
    Codec ID : S_TEXT/UTF8
    Codec ID/Info : UTF-8 Plain Text
    Duration : 2 h 0 min
    Bit rate : 30 b/s
    Frame rate : 0.118 FPS
    Count of elements : 855
    Stream size : 26.6 KiB (0%)
    Language : Portuguese (PT)
    Default : No
    Forced : No

    Text #30
    ID : 33
    Format : UTF-8
    Codec ID : S_TEXT/UTF8
    Codec ID/Info : UTF-8 Plain Text
    Duration : 2 h 0 min
    Bit rate : 29 b/s
    Frame rate : 0.116 FPS
    Count of elements : 839
    Stream size : 26.3 KiB (0%)
    Language : Romanian
    Default : No
    Forced : No

    Text #31
    ID : 34
    Format : UTF-8
    Codec ID : S_TEXT/UTF8
    Codec ID/Info : UTF-8 Plain Text
    Duration : 2 h 0 min
    Bit rate : 47 b/s
    Frame rate : 0.118 FPS
    Count of elements : 857
    Stream size : 41.8 KiB (0%)
    Language : Russian
    Default : No
    Forced : No

    Text #32
    ID : 35
    Format : UTF-8
    Codec ID : S_TEXT/UTF8
    Codec ID/Info : UTF-8 Plain Text
    Duration : 2 h 0 min
    Bit rate : 28 b/s
    Frame rate : 0.115 FPS
    Count of elements : 830
    Stream size : 25.6 KiB (0%)
    Language : Swedish
    Default : No
    Forced : No

    Text #33
    ID : 36
    Format : UTF-8
    Codec ID : S_TEXT/UTF8
    Codec ID/Info : UTF-8 Plain Text
    Duration : 2 h 0 min
    Bit rate : 29 b/s
    Frame rate : 0.109 FPS
    Count of elements : 787
    Stream size : 26.0 KiB (0%)
    Language : Turkish
    Default : No
    Forced : No

    Text #34
    ID : 37
    Format : UTF-8
    Codec ID : S_TEXT/UTF8
    Codec ID/Info : UTF-8 Plain Text
    Duration : 2 h 0 min
    Bit rate : 49 b/s
    Frame rate : 0.117 FPS
    Count of elements : 849
    Stream size : 43.5 KiB (0%)
    Language : Ukrainian
    Default : No
    Forced : No

    Text #35
    ID : 38
    Format : UTF-8
    Codec ID : S_TEXT/UTF8
    Codec ID/Info : UTF-8 Plain Text
    Duration : 2 h 0 min
    Bit rate : 39 b/s
    Frame rate : 0.118 FPS
    Count of elements : 855
    Stream size : 34.8 KiB (0%)
    Language : Vietnamese
    Default : No
    Forced : No

    Text #36
    ID : 39
    Format : UTF-8
    Codec ID : S_TEXT/UTF8
    Codec ID/Info : UTF-8 Plain Text
    Duration : 2 h 0 min
    Bit rate : 26 b/s
    Frame rate : 0.118 FPS
    Count of elements : 856
    Stream size : 23.0 KiB (0%)
    Title : Simplified
    Language : Chinese (Simplified)
    Default : No
    Forced : No

    Text #37
    ID : 40
    Format : UTF-8
    Codec ID : S_TEXT/UTF8
    Codec ID/Info : UTF-8 Plain Text
    Duration : 2 h 0 min
    Bit rate : 23 b/s
    Frame rate : 0.129 FPS
    Count of elements : 931
    Stream size : 21.1 KiB (0%)
    Title : Traditional
    Language : Chinese (Traditional)
    Default : No
    Forced : No



    Rebel.Moon.Part.Two.The.Scargiver.2024.1080p.NF.WE B-DL.TH.DDP5.1.Atmos.H.264-BAPHOMET.mkv
    http://www.filecondo.com/dl.php?f=8690711RXLKp

    5.81 GB

  2. The Following 2 Users Say Thank You to Duckload.us For This Useful Post:

    Nam1499 (04-20-2024), Wesker_TOT (04-20-2024)

  3. #2
    Senior Member
    สมัครเมื่อ
    Dec 2013
    โพสต์
    6,232
    Thanks
    8,215
    Thanked 0 Times in 0 Posts
    ขอบคุณครับ...

  4. #3
    Senior Member
    สมัครเมื่อ
    Feb 2024
    โพสต์
    328
    Thanks
    297
    Thanked 0 Times in 0 Posts
    ข อ บ คุ ณ ม า ก ค่ ะ

  5. #4
    Senior Member
    สมัครเมื่อ
    Jan 2019
    โพสต์
    103
    Thanks
    0
    Thanked 0 Times in 0 Posts
    ขอบคุณครับ

+ ตอบกลับกระทู้

ข้อมูลกระทู้

Users Browsing this Thread

ในขณะนี้มี 1 ท่านดูกระทู้อยู่. (0 สมาชิกและ 1 ผู้เยี่ยมชม)

     

กฎการโพสต์ข้อความ

  • ท่าน ไม่สามารถ ตั้งกระทู้ใหม่ได้
  • ท่าน ไม่สามารถ ตอบกระทู้ได้
  • ท่าน ไม่สามารถ แนบไฟล์ได้
  • ท่าน ไม่สามารถ แก้ไขข้อความโพสต์ได้
  • BB code สถานะ เปิด
  • Smilies สถานะ เปิด
  • [IMG] สถานะ เปิด
  • HTML สถานะ ปิด