+ ตอบกลับกระทู้
สรุปผลการค้นหา 1 ถึง 3 จากทั้งหมด 3
  1. #1
    Administrators รูปส่วนตัว Duckload.us
    สมัครเมื่อ
    Dec 2010
    โพสต์
    151,630
    Thanks
    7
    Thanked 158,639 Times in 69,336 Posts

    Lightbulb [ฝรั่ง]-Fallout (TV Series 2024)(Season 1 Complete) พากย์ไทย ไฟล์เล็กสำหรับ TV , เครื่องเล่นรุ่นเก่า-HDTV.H.264.1080p. [Hi-def rip from Master]-[พากย์ไทย]




    เรื่องย่อ...
    สร้างจากหนึ่งในซีรี่ส์เกมที่ยอดเยี่ยมตลอดกาล ฟอลล์เอาท์คือเรื่องราวของคนมีกินและคนไม่มีอันจะกิน ในโลกซึ่งแทบไม่เหลืออะไรให้ครอบครองอีกแล้ว 200 ปีหลังจากวันสิ้นโลก ผู้อาศัยที่อยู่อย่างสงบในหลุมหลบภัยถูกบังคับให้หวน กลับขึ้นมาบนพื้นผิว และต้องตกใจเมื่อพบว่าแดนร้างรอเธออยู่

    General
    Complete name : C:UsersJDesktopFallout S1 - Ep01 The End.mp4
    Format : MPEG-4
    Format profile : Base Media / Version 2
    Codec ID : mp42 (mp42/iso2/avc1/mp41)
    File size : 1.58 GiB
    Duration : 1 h 14 min
    Overall bit rate mode : Variable
    Overall bit rate : 3 013 kb/s
    Frame rate : 23.976 FPS
    Movie name : The End
    Genre : Action Adventure Drama Science Fiction
    Des--cription : Okey dokey...
    Encoded date : 2024-04-20 07:53:42 UTC
    Tagged date : 2024-04-20 07:53:42 UTC
    Writing application : HandBrake 1.7.3 2024021000

    Video
    ID : 1
    Format : AVC
    Format/Info : Advanced Video Codec
    Format profile : Main@L4
    Format settings : CABAC / 4 Ref Frames
    Format settings, CABAC : Yes
    Format settings, Reference : 4 frames
    Codec ID : avc1
    Codec ID/Info : Advanced Video Coding
    Duration : 1 h 14 min
    Bit rate mode : Variable
    Bit rate : 2 847 kb/s
    Maximum bit rate : 9 000 kb/s
    Width : 1 920 pixels
    Height : 804 pixels
    Display aspect ratio : 2.39:1
    Frame rate mode : Variable
    Frame rate : 23.976 (24000/1001) FPS
    Minimum frame rate : 23.974 FPS
    Maximum frame rate : 24.000 FPS
    Color space : YUV
    Chroma subsampling : 4:2:0
    Bit depth : 8 bits
    Scan type : Progressive
    Bits/(Pixel*Frame) : 0.077
    Stream size : 1.49 GiB (94%)
    Encoded date : 2024-04-20 07:53:42 UTC
    Tagged date : 2024-04-20 07:53:42 UTC
    Color range : Limited
    Color primaries : BT.709
    Transfer characteristics : BT.709
    Matrix coefficients : BT.709
    Menus : 3
    mdhd_Duration : 4497535
    Codec configuration box : avcC

    Audio
    ID : 2
    Format : MPEG Audio
    Format version : Version 1
    Format profile : Layer 3
    Format settings : Joint stereo / MS Stereo
    Codec ID : mp4a-6B
    Duration : 1 h 14 min
    Source duration : 1 h 14 min
    Bit rate mode : Constant
    Bit rate : 160 kb/s
    Channel(s) : 2 channels
    Sampling rate : 48.0 kHz
    Compression mode : Lossy
    Stream size : 85.8 MiB (5%)
    Source stream size : 85.8 MiB (5%)
    Title : Stereo / Stereo
    Writing library : LAME3.100
    Language : Thai
    Default : Yes
    Alternate group : 1
    Encoded date : 2024-04-20 07:53:42 UTC
    Tagged date : 2024-04-20 07:53:42 UTC
    Menus : 3

    Menu
    ID : 3
    Format : Timed Text
    Codec ID : text
    Duration : 1 h 14 min
    Language : English
    Encoded date : 2024-04-20 07:53:42 UTC
    Tagged date : 2024-04-20 07:53:42 UTC
    Menu For : 1,2
    00:00:00.000 : 1. Studio Logo
    00:00:17.017 : Scene 2
    00:03:23.036 : Scene 3
    00:07:04.007 : 4. Title Sequence
    00:07:12.015 : Scene 5
    00:09:04.002 : Scene 6
    00:12:04.015 : Scene 7
    00:15:51.033 : Scene 8
    00:17:37.014 : Scene 9
    00:18:34.030 : Scene 10
    00:20:24.014 : Scene 11
    00:26:17.034 : Scene 12
    00:31:01.026 : Scene 13
    00:33:38.016 : Scene 14
    00:37:23.032 : Scene 15
    00:38:59.003 : Scene 16
    00:40:50.031 : Scene 17
    00:41:27.026 : Scene 18
    00:43:38.032 : Scene 19
    00:44:55.026 : Scene 20
    00:47:59.001 : Scene 21
    00:50:02.041 : Scene 22
    00:54:51.038 : Scene 23
    00:56:02.025 : Scene 24
    00:59:21.016 : Scene 25
    01:06:10.008 : 26. End Credits
    01:07:38.012 : 27. Next on



    Fallout_S1_-_Ep08_The_Beginning.mp4
    http://www.filecondo.com/dl.php?f=t9c6fc1RYuhd

    Fallout_S1_-_Ep07_The_Radio.mp4
    http://www.filecondo.com/dl.php?f=D8d29d1RYugd

    Fallout_S1_-_Ep06_The_Trap.mp4
    http://www.filecondo.com/dl.php?f=hf923c1RYufg

    Fallout_S1_-_Ep05_The_Past.mp4
    http://www.filecondo.com/dl.php?f=V62b591RYueg

    Fallout_S1_-_Ep04_The_Ghouls.mp4
    http://www.filecondo.com/dl.php?f=r439f41RYudi

    Fallout_S1_-_Ep03_The_Head.mp4
    http://www.filecondo.com/dl.php?f=208c6e1RYucl

    Fallout_S1_-_Ep02_The_Target.mp4
    http://www.filecondo.com/dl.php?f=405fd51RYubn

    Fallout_S1_-_Ep01_The_End.mp4
    http://www.filecondo.com/dl.php?f=Z76ae81RYuar


    *****************************************

    Fallout_S1_-_EP08_The_Beginning.mkv
    http://www.filecondo.com/dl.php?f=Q978601RYv9y

    Fallout_S1_-_EP07_The_Radio.mkv
    http://www.filecondo.com/dl.php?f=jc99a81RYv8B

    Fallout_S1_-_EP06_The_Trap.mkv
    http://www.filecondo.com/dl.php?f=D6b5761RYv7F

    Fallout_S1_-_EP05_The_Past.mkv
    http://www.filecondo.com/dl.php?f=4d00451RYv6E

    Fallout_S1_-_EP04_The_Ghouls.mkv
    http://www.filecondo.com/dl.php?f=F8f7ab1RYv5F

    Fallout_S1_-_EP03_The_Head.mkv
    http://www.filecondo.com/dl.php?f=R622311RYv4H

    Fallout_S1_-_EP02_The_Target.mkv
    http://www.filecondo.com/dl.php?f=89d2461RYv3L

    Fallout_S1_-_EP01_The_End.mkv
    http://www.filecondo.com/dl.php?f=f3f1911RYv2M



    ************************************************** *****
    Fallout_S01E008_จุดเริ่มต้น_by_MerkavaMII.mkv
    http://www.filecondo.com/dl.php?f=4ee7a01RYwsY

    Fallout_S01E007_วิทยุ_by_MerkavaMII.mkv
    http://www.filecondo.com/dl.php?f=Q1f2911RYwrX

    Fallout_S01E006_กับดัก_by_MerkavaMII.mkv
    http://www.filecondo.com/dl.php?f=Od9a051RYwr2

    Fallout_S01E005_อดีต_by_MerkavaMII.mkv
    http://www.filecondo.com/dl.php?f=dd1d9e1RYwpY

    Fallout_S01E004_เดอะ_กูล_by_MerkavaMII.mkv
    http://www.filecondo.com/dl.php?f=kd6df91RYwp1

    Fallout_S01E003_หัว_by_MerkavaMII.mkv
    http://www.filecondo.com/dl.php?f=8eeb081RYwo8

    Fallout_S01E002_เป้าหมาย_by_MerkavaMII.mkv
    http://www.filecondo.com/dl.php?f=o7fc031RYwnd

    Fallout_S01E001_จุดจบ_by_MerkavaMII.mkv
    http://www.filecondo.com/dl.php?f=X28c5d1RYwmh

  2. The Following 2 Users Say Thank You to Duckload.us For This Useful Post:

    neorun (04-21-2024), Wesker_TOT (04-21-2024)

  3. #2
    Senior Member
    สมัครเมื่อ
    Dec 2013
    โพสต์
    6,232
    Thanks
    8,215
    Thanked 0 Times in 0 Posts
    ขอบคุณครับ...

  4. #3
    Senior Member รูปส่วนตัว petpina2010
    สมัครเมื่อ
    Jun 2020
    โพสต์
    250
    Thanks
    251
    Thanked 0 Times in 0 Posts
    ขอบคุณครับ

+ ตอบกลับกระทู้

ข้อมูลกระทู้

Users Browsing this Thread

ในขณะนี้มี 1 ท่านดูกระทู้อยู่. (0 สมาชิกและ 1 ผู้เยี่ยมชม)

     

กฎการโพสต์ข้อความ

  • ท่าน ไม่สามารถ ตั้งกระทู้ใหม่ได้
  • ท่าน ไม่สามารถ ตอบกระทู้ได้
  • ท่าน ไม่สามารถ แนบไฟล์ได้
  • ท่าน ไม่สามารถ แก้ไขข้อความโพสต์ได้
  • BB code สถานะ เปิด
  • Smilies สถานะ เปิด
  • [IMG] สถานะ เปิด
  • HTML สถานะ ปิด