+ ตอบกลับกระทู้
สรุปผลการค้นหา 1 ถึง 5 จากทั้งหมด 5
  1. #1
    Administrators รูปส่วนตัว Duckload.us
    สมัครเมื่อ
    Dec 2010
    โพสต์
    152,670
    Thanks
    7
    Thanked 159,850 Times in 69,922 Posts

    Lightbulb [จีน]-[* WeTV *] The Legend of Shen Li (2024) : ปฐพีไร้พ่าย | The Complete Series (Season 1) [เสียงไทย + เสียงจีน] [บรรยายไทย , อังกฤษ , จีน] [เสียงไทย + ซับไทย From WeTV + ซับ ASS , SRT , PGS]-WEB-DL.H.264.1080p.



    เรื่องราวของ สิงอวิ๋น มหาเทพมังกรดำ ซึ่งเป็นเทพเจ้าองค์สุดท้ายในโลกที่อาศัยอยู่ตามลำพั งในสวรรค์มานานกว่าหมื่นปี เพื่อรักษาสมดุลระหว่างเทพ ผี ปีศาจ และมนุษย์ เป็นเทพที่มีอำนาจ ยุติธรรม แต่เยือกเย็น ไร้ความปรานี ไม่มีความรักหรือแม้แต่ความรู้สึกใด ๆ
    จนถึงวันที่ต้องอวตารลงไปท่องโลกมนุษย์และได้พบกับ เสิ่นหลี ราชินีผู้เกิดมาพร้อมกับไข่มุกแห่งโลกมาร ที่ต้องการหลบหนีจากการแต่งงานเพื่อเชื่อมสัมพันธ์ทา งการเมืองในวันเกิดอายุพันปี
    ระหว่างทางที่จะหลบหนีการแต่งงานครั้งนี้ เสิ่นหลีถูกโจมตีและเปลี่ยนกลับเป็นรูปร่างฟีนิกซ์ เธอตกลงไปในโลกมนุษย์ด้วยอาการโคม่าและมีบาดแผลสาหัส ถูกพ่อค้ามนุษย์นึกว่าเป็นไก่จึงจับถอนขนจนเกลี้ยงแล ้วขังในกรงรอขาย
    เสิ่นหลีตื่นขึ้นมาและพบว่าตัวเองตกอยู่ในสถานการณ์ท ี่หมดอาลัยตายอยาก ขณะที่เธอรู้สึกหดหู่และสิ้นหวัง ชายรูปงามผ่านมาจ้องเธออยู่นาน ก่อนจะยิ้มแล้วพูดว่า ข้าเอาตัวนี้ และนั่นก็ทำให้ชีวิตอันแสนสงบและชะตากรรมชองทั้งคู่เ ปลี่ยนไปตลอดกาล เรื่องราวจะเป็นอย่างไรต่อไป ติดตามชมกันต่อได้ในซีรีส์ ปฐพีไร้พ่าย The Legend of Shen Li


    Format : Matroska
    Format version : Version 4
    File size : 672 MiB
    Duration : 37 min 56 s
    Overall bit rate : 2 474 kb/s
    Frame rate : 25.000 FPS
    Movie name : The.Legend.of.Shen.Li.2024.S01E01.1080p.WeTV.WEB-DL.AAC2.0.H264_SkiesIT

    Video
    ID : 1
    Format : AVC
    Format/Info : Advanced Video Codec
    Format profile : High@L4
    Format settings : CABAC / 4 Ref Frames
    Format settings, CABAC : Yes
    Format settings, Reference frames : 4 frames
    Codec ID : V_MPEG4/ISO/AVC
    Duration : 37 min 56 s
    Bit rate : 2 157 kb/s
    Width : 1 920 pixels
    Height : 1 080 pixels
    Display aspect ratio : 16:9
    Frame rate mode : Constant
    Frame rate : 25.000 FPS
    Color space : YUV
    Chroma subsampling : 4:2:0
    Bit depth : 8 bits
    Scan type : Progressive
    Bits/(Pixel*Frame) : 0.042
    Stream size : 586 MiB (87%)
    Title : The.Legend.of.Shen.Li.2024.S01E01.1080p.WeTV.WEB-DL.AAC2.0.H264_SkiesIT
    Language : Chinese
    Default : Yes
    Forced : No
    Color range : Limited
    Color primaries : BT.709
    Transfer characteristics : BT.709
    Matrix coefficients : BT.709

    Audio #1
    ID : 2
    Format : AAC LC
    Format/Info : Advanced Audio Codec Low Complexity
    Codec ID : A_AAC-2
    Duration : 37 min 56 s
    Bit rate : 125 kb/s
    Channel(s) : 2 channels
    Channel layout : L R
    Sampling rate : 48.0 kHz
    Frame rate : 46.875 FPS (1024 SPF)
    Compression mode : Lossy
    Delay relative to video : -42 ms
    Stream size : 34.0 MiB (5%)
    Language : Thai
    Default : Yes
    Forced : No

    Audio #2
    ID : 3
    Format : AAC LC
    Format/Info : Advanced Audio Codec Low Complexity
    Codec ID : A_AAC-2
    Duration : 37 min 56 s
    Bit rate : 125 kb/s
    Channel(s) : 2 channels
    Channel layout : L R
    Sampling rate : 48.0 kHz
    Frame rate : 46.875 FPS (1024 SPF)
    Compression mode : Lossy
    Delay relative to video : -42 ms
    Stream size : 34.0 MiB (5%)
    Language : Chinese
    Default : No
    Forced : No

    Text #1
    ID : 4
    Format : UTF-8
    Codec ID : S_TEXT/UTF8
    Codec ID/Info : UTF-8 Plain Text
    Duration : 33 min 33 s
    Bit rate : 29 b/s
    Frame rate : 0.239 FPS
    Count of elements : 482
    Stream size : 7.37 KiB (0%)
    Title : Chinese (Simplified)
    Language : Chinese (Simplified)
    Default : No
    Forced : No

    Text #2
    ID : 5
    Format : UTF-8
    Codec ID : S_TEXT/UTF8
    Codec ID/Info : UTF-8 Plain Text
    Duration : 33 min 33 s
    Bit rate : 29 b/s
    Frame rate : 0.239 FPS
    Count of elements : 482
    Stream size : 7.37 KiB (0%)
    Title : Chinese (Traditional)
    Language : Chinese (Traditional)
    Default : No
    Forced : No

    Text #3
    ID : 6
    Format : UTF-8
    Codec ID : S_TEXT/UTF8
    Codec ID/Info : UTF-8 Plain Text
    Duration : 36 min 23 s
    Bit rate : 40 b/s
    Frame rate : 0.234 FPS
    Count of elements : 511
    Stream size : 10.9 KiB (0%)
    Title : English
    Language : English
    Default : No
    Forced : No

    Text #4
    ID : 7
    Format : UTF-8
    Codec ID : S_TEXT/UTF8
    Codec ID/Info : UTF-8 Plain Text
    Duration : 36 min 24 s
    Bit rate : 113 b/s
    Frame rate : 0.253 FPS
    Count of elements : 553
    Stream size : 30.4 KiB (0%)
    Title : SRT From WeTV
    Language : Thai
    Default : No
    Forced : No

    Text #5
    ID : 8
    Format : ASS
    Codec ID : S_TEXT/ASS
    Codec ID/Info : Advanced Sub Station Alpha
    Duration : 36 min 24 s
    Bit rate : 174 b/s
    Frame rate : 0.253 FPS
    Count of elements : 553
    Compression mode : Lossless
    Stream size : 46.5 KiB (0%)
    Title : ASS From WeTV
    Language : Thai
    Default : No
    Forced : No

    Text #6
    ID : 9
    Format : ASS
    Codec ID : S_TEXT/ASS
    Codec ID/Info : Advanced Sub Station Alpha
    Duration : 36 min 24 s
    Bit rate : 192 b/s
    Frame rate : 0.253 FPS
    Count of elements : 553
    Compression mode : Lossless
    Stream size : 51.3 KiB (0%)
    Title : ASS From WeTV [Yellow]
    Language : Thai
    Default : No
    Forced : No

    Text #7
    ID : 10
    Format : PGS
    Muxing mode : zlib
    Codec ID : S_HDMV/PGS
    Codec ID/Info : Picture based subtitle format used on BDs/HD-DVDs
    Duration : 36 min 24 s
    Bit rate : 35.1 kb/s
    Frame rate : 0.506 FPS
    Count of elements : 1106
    Stream size : 9.15 MiB (1%)
    Title : Cordia New PGS
    Language : Thai
    Default : No
    Forced : No

    Text #8
    ID : 11
    Format : PGS
    Muxing mode : zlib
    Codec ID : S_HDMV/PGS
    Codec ID/Info : Picture based subtitle format used on BDs/HD-DVDs
    Duration : 36 min 24 s
    Bit rate : 35.4 kb/s
    Frame rate : 0.506 FPS
    Count of elements : 1106
    Stream size : 9.21 MiB (1%)
    Title : Cordia New PGS [Yellow]
    Language : Thai
    Default : No
    Forced : No

    Text #9
    ID : 12
    Format : PGS
    Muxing mode : zlib
    Codec ID : S_HDMV/PGS
    Codec ID/Info : Picture based subtitle format used on BDs/HD-DVDs
    Duration : 36 min 24 s
    Bit rate : 35.2 kb/s
    Frame rate : 0.506 FPS
    Count of elements : 1106
    Stream size : 9.18 MiB (1%)
    Title : Droid Sans PGS
    Language : Thai
    Default : No
    Forced : No

    Text #10
    ID : 13
    Format : PGS
    Muxing mode : zlib
    Codec ID : S_HDMV/PGS
    Codec ID/Info : Picture based subtitle format used on BDs/HD-DVDs
    Duration : 36 min 24 s
    Bit rate : 35.4 kb/s
    Frame rate : 0.506 FPS
    Count of elements : 1106
    Stream size : 9.23 MiB (1%)
    Title : Droid Sans PGS [Yellow]
    Language : Thai
    Default : No
    Forced : No













    The.Legend.of.Shen.Li.2024.S01E39.1080p.WeTV.WEB-DL.AAC2.0.H264_SkiesIT.mkv
    http://www.filecondo.com/dl.php?f=ib16251S3D7h

    The.Legend.of.Shen.Li.2024.S01E38.1080p.WeTV.WEB-DL.AAC2.0.H264_SkiesIT.mkv
    http://www.filecondo.com/dl.php?f=ua8b121S3D6i

    The.Legend.of.Shen.Li.2024.S01E37.1080p.WeTV.WEB-DL.AAC2.0.H264_SkiesIT.mkv
    http://www.filecondo.com/dl.php?f=p43d9e1S3D5i

    The.Legend.of.Shen.Li.2024.S01E36.1080p.WeTV.WEB-DL.AAC2.0.H264_SkiesIT.mkv
    http://www.filecondo.com/dl.php?f=sd188a1S3D4o

    The.Legend.of.Shen.Li.2024.S01E35.1080p.WeTV.WEB-DL.AAC2.0.H264_SkiesIT.mkv
    http://www.filecondo.com/dl.php?f=e516f11S3D3m

    The.Legend.of.Shen.Li.2024.S01E34.1080p.WeTV.WEB-DL.AAC2.0.H264_SkiesIT.mkv
    http://www.filecondo.com/dl.php?f=W2b9731S3D2n

    The.Legend.of.Shen.Li.2024.S01E33.1080p.WeTV.WEB-DL.AAC2.0.H264_SkiesIT.mkv
    http://www.filecondo.com/dl.php?f=759fab1S3D1p

    The.Legend.of.Shen.Li.2024.S01E32.1080p.WeTV.WEB-DL.AAC2.0.H264_SkiesIT.mkv
    http://www.filecondo.com/dl.php?f=8a908f1S3D0t

    The.Legend.of.Shen.Li.2024.S01E31.1080p.WeTV.WEB-DL.AAC2.0.H264_SkiesIT.mkv
    http://www.filecondo.com/dl.php?f=D431bf1S3CZv

    The.Legend.of.Shen.Li.2024.S01E30.1080p.WeTV.WEB-DL.AAC2.0.H264_SkiesIT.mkv h
    http://www.filecondo.com/dl.php?f=td3da61S3CYv

    The.Legend.of.Shen.Li.2024.S01E29.1080p.WeTV.WEB-DL.AAC2.0.H264_SkiesIT.mkv
    http://www.filecondo.com/dl.php?f=Qed6fb1S3CXw

    The.Legend.of.Shen.Li.2024.S01E28.1080p.WeTV.WEB-DL.AAC2.0.H264_SkiesIT.mkv
    http://www.filecondo.com/dl.php?f=Ocf70e1S3CWz

    The.Legend.of.Shen.Li.2024.S01E27.1080p.WeTV.WEB-DL.AAC2.0.H264_SkiesIT.mkv
    http://www.filecondo.com/dl.php?f=o5ae501S3CVB

    The.Legend.of.Shen.Li.2024.S01E26.1080p.WeTV.WEB-DL.AAC2.0.H264_SkiesIT.mkv
    http://www.filecondo.com/dl.php?f=71c4f61S3CUD

    The.Legend.of.Shen.Li.2024.S01E25.1080p.WeTV.WEB-DL.AAC2.0.H264_SkiesIT.mkv
    http://www.filecondo.com/dl.php?f=B6e0fe1S3CTF

    The.Legend.of.Shen.Li.2024.S01E24.1080p.WeTV.WEB-DL.AAC2.0.H264_SkiesIT.mkv
    http://www.filecondo.com/dl.php?f=b40c1d1S3CSH

    The.Legend.of.Shen.Li.2024.S01E23.1080p.WeTV.WEB-DL.AAC2.0.H264_SkiesIT.mkv
    http://www.filecondo.com/dl.php?f=zc96741S3CRJ

    The.Legend.of.Shen.Li.2024.S01E22.1080p.WeTV.WEB-DL.AAC2.0.H264_SkiesIT.mkv
    http://www.filecondo.com/dl.php?f=b694c81S3CQL

    The.Legend.of.Shen.Li.2024.S01E21.1080p.WeTV.WEB-DL.AAC2.0.H264_SkiesIT.mkv
    http://www.filecondo.com/dl.php?f=B61b821S3CPO

    The.Legend.of.Shen.Li.2024.S01E20.1080p.WeTV.WEB-DL.AAC2.0.H264_SkiesIT.mkv
    http://www.filecondo.com/dl.php?f=nbf6a21S3COP

    The.Legend.of.Shen.Li.2024.S01E19.1080p.WeTV.WEB-DL.AAC2.0.H264_SkiesIT.mkv
    http://www.filecondo.com/dl.php?f=74ea2d1S3CNR

    The.Legend.of.Shen.Li.2024.S01E18.1080p.WeTV.WEB-DL.AAC2.0.H264_SkiesIT.mkv
    http://www.filecondo.com/dl.php?f=383f081S3CMT

    The.Legend.of.Shen.Li.2024.S01E17.1080p.WeTV.WEB-DL.AAC2.0.H264_SkiesIT.mkv
    http://www.filecondo.com/dl.php?f=Ba90001S3CLV

    The.Legend.of.Shen.Li.2024.S01E16.1080p.WeTV.WEB-DL.AAC2.0.H264_SkiesIT.mkv
    http://www.filecondo.com/dl.php?f=D1933e1S3CKX

    The.Legend.of.Shen.Li.2024.S01E15.1080p.WeTV.WEB-DL.AAC2.0.H264_SkiesIT.mkv
    http://www.filecondo.com/dl.php?f=90c73d1S3CK0

    The.Legend.of.Shen.Li.2024.S01E14.1080p.WeTV.WEB-DL.AAC2.0.H264_SkiesIT.mkv
    http://www.filecondo.com/dl.php?f=ya76961S3CJ1

    The.Legend.of.Shen.Li.2024.S01E13.1080p.WeTV.WEB-DL.AAC2.0.H264_SkiesIT.mkv
    http://www.filecondo.com/dl.php?f=mfe0ca1S3CI3

    The.Legend.of.Shen.Li.2024.S01E12.1080p.WeTV.WEB-DL.AAC2.0.H264_SkiesIT.mkv
    http://www.filecondo.com/dl.php?f=Mf26361S3CH5

    The.Legend.of.Shen.Li.2024.S01E11.1080p.WeTV.WEB-DL.AAC2.0.H264_SkiesIT.mkv
    http://www.filecondo.com/dl.php?f=q3beb01S3CG7

    The.Legend.of.Shen.Li.2024.S01E10.1080p.WeTV.WEB-DL.AAC2.0.H264_SkiesIT.mkv
    http://www.filecondo.com/dl.php?f=r2257a1S3CF9

    The.Legend.of.Shen.Li.2024.S01E09.1080p.WeTV.WEB-DL.AAC2.0.H264_SkiesIT.mkv
    http://www.filecondo.com/dl.php?f=N63da61S3CEb

    The.Legend.of.Shen.Li.2024.S01E08.1080p.WeTV.WEB-DL.AAC2.0.H264_SkiesIT.mkv
    http://www.filecondo.com/dl.php?f=mbe42b1S3CDe

    The.Legend.of.Shen.Li.2024.S01E07.1080p.WeTV.WEB-DL.AAC2.0.H264_SkiesIT.mkv
    http://www.filecondo.com/dl.php?f=db85a21S3CCf

    The.Legend.of.Shen.Li.2024.S01E06.1080p.WeTV.WEB-DL.AAC2.0.H264_SkiesIT.mkv
    http://www.filecondo.com/dl.php?f=Ye33d71S3CBh

    The.Legend.of.Shen.Li.2024.S01E05.1080p.WeTV.WEB-DL.AAC2.0.H264_SkiesIT.mkv
    http://www.filecondo.com/dl.php?f=Qc18581S3CAj

    The.Legend.of.Shen.Li.2024.S01E04.1080p.WeTV.WEB-DL.AAC2.0.H264_SkiesIT.mkv
    http://www.filecondo.com/dl.php?f=Rbdac51S3Czl

    The.Legend.of.Shen.Li.2024.S01E03.1080p.WeTV.WEB-DL.AAC2.0.H264_SkiesIT.mkv
    http://www.filecondo.com/dl.php?f=qdeaf61S3Cyn

    The.Legend.of.Shen.Li.2024.S01E02.1080p.WeTV.WEB-DL.AAC2.0.H264_SkiesIT.mkv
    http://www.filecondo.com/dl.php?f=kacfac1S3Cxp

    The.Legend.of.Shen.Li.2024.S01E01.1080p.WeTV.WEB-DL.AAC2.0.H264_SkiesIT.mkv
    http://www.filecondo.com/dl.php?f=Uf22231S3Cwr

  2. The Following 2 Users Say Thank You to Duckload.us For This Useful Post:

    F2UMaH6398 (05-07-2024), Nam1499 (05-10-2024)

  3. #2
    Junior Member
    สมัครเมื่อ
    Oct 2012
    โพสต์
    12
    Thanks
    0
    Thanked 0 Times in 0 Posts
    ttp://www.filecondo.com/dl.php?f=td3da61S3CYv
    30 ไม่มี link downlod ได้ครับ

  4. #3
    Junior Member
    สมัครเมื่อ
    Jul 2015
    ที่อยู่
    bangkok
    โพสต์
    7
    Thanks
    1,893
    Thanked 0 Times in 0 Posts
    The.Legend.of.Shen.Li.2024.S01E30.1080p.WeTV.WEB-DL.AAC2.0.H264_SkiesIT.mkv
    http://www.filecondo.com/dl.php?f=td3da61S3CYv

  5. #4
    Senior Member
    สมัครเมื่อ
    Oct 2013
    โพสต์
    2,555
    Thanks
    0
    Thanked 0 Times in 0 Posts
    ขอบคุณครับ

  6. #5
    Senior Member
    สมัครเมื่อ
    Feb 2024
    โพสต์
    451
    Thanks
    413
    Thanked 0 Times in 0 Posts
    ข อ บ คุ ณ ม า ก ค่ ะ

+ ตอบกลับกระทู้

ข้อมูลกระทู้

Users Browsing this Thread

ในขณะนี้มี 1 ท่านดูกระทู้อยู่. (0 สมาชิกและ 1 ผู้เยี่ยมชม)

     

กฎการโพสต์ข้อความ

  • ท่าน ไม่สามารถ ตั้งกระทู้ใหม่ได้
  • ท่าน ไม่สามารถ ตอบกระทู้ได้
  • ท่าน ไม่สามารถ แนบไฟล์ได้
  • ท่าน ไม่สามารถ แก้ไขข้อความโพสต์ได้
  • BB code สถานะ เปิด
  • Smilies สถานะ เปิด
  • [IMG] สถานะ เปิด
  • HTML สถานะ ปิด