+ ตอบกลับกระทู้
สรุปผลการค้นหา 1 ถึง 3 จากทั้งหมด 3
  1. #1
    Administrators รูปส่วนตัว Duckload.us
    สมัครเมื่อ
    Dec 2010
    โพสต์
    151,649
    Thanks
    7
    Thanked 158,661 Times in 69,352 Posts

    Lightbulb [ฝรั่ง]-[* ใหม่ร้อนๆ! + ภาพชัด-เสียงไทยโรงชัด! *] • The Fall Guy (2024) : สตันท์แมนคนจริง • [เสียงไทยโรง 2.0 + เสียงอังกฤษ 2.0] • [* HDTS.1080p! *]



    ••• The.Fall.Guy.2024.1080p.HDTS.x264 •••
    เสียง : เสียงอังกฤษ + พากย์ไทยโรง

    The Fall Guy โคลท์ ซีเวอร์ส เป็นสตันท์แมนตกถอนตัวออกไปจากวงการเมื่อหลายปีก่อน ด้วยเหตุผลทางด้านสุขภาพกายและสุขภาพจิตของ เขากลับมาเข้าในวงการอีกครั้งเมื่อนักแสดงนำของภาพยน ตร์สตูดิโอฟอร์มยักษ์เรื่องหนึ่ง ที่เป็นผลงานการกำกับของคนรักเก่าของเขาได้หายตัวไป!

    Format : Matroska
    Format version : Version 4
    File size : 7.44 GiB
    Duration : 2 h 1 min
    Overall bit rate : 8 779 kb/s
    Frame rate : 24.000 FPS

    Video
    ID : 1
    Format : AVC
    Format/Info : Advanced Video Codec
    Format profile : [email protected]
    Format settings : CABAC / 4 Ref Frames
    Format settings, CABAC : Yes
    Format settings, Reference : 4 frames
    Codec ID : V_MPEG4/ISO/AVC
    Duration : 2 h 1 min
    Bit rate mode : Constant
    Bit rate : 8 243 kb/s
    Width : 1 920 pixels
    Height : 900 pixels
    Display aspect ratio : 2.133
    Frame rate mode : Constant
    Frame rate : 24.000 FPS
    Color space : YUV
    Chroma subsampling : 4:2:0
    Bit depth : 8 bits
    Scan type : Progressive
    Bits/(Pixel*Frame) : 0.199
    Stream size : 6.84 GiB (92%)
    Title : The.Fall.Guy.2024.1080p.HDTS.x264_Mr.Captain@BearB it
    Writing library : x264 core 164 r3172 c1c9931
    Encoding settings : cabac=1 / ref=4 / deblock=1:-2:-2 / analyse=0x3:0x133 / me=umh / subme=10 / psy=1 / psy_rd=1.00:0.25 / mixed_ref=1 / me_range=24 / chroma_me=1 / trellis=2 / 8x8dct=1 / cqm=0 / deadzone=6,6 / fast_pskip=1 / chroma_qp_offset=-4 / threads=15 / lookahead_threads=2 / sliced_threads=0 / nr=0 / decimate=0 / interlaced=0 / bluray_compat=0 / constrained_intra=0 / bframes=8 / b_pyramid=2 / b_adapt=2 / b_bias=0 / direct=3 / weightb=1 / open_gop=0 / weightp=2 / keyint=250 / keyint_min=24 / scenecut=40 / intra_refresh=0 / rc_lookahead=60 / rc=2pass / mbtree=1 / bitrate=8243 / ratetol=1.0 / qcomp=0.80 / qpmin=0 / qpmax=69 / qpstep=4 / cplxblur=20.0 / qblur=0.5 / vbv_maxrate=8243 / vbv_bufsize=16486 / nal_hrd=cbr / filler=1 / ip_ratio=1.10 / aq=1:0.50
    Language : English
    Default : Yes
    Forced : No
    Color range : Limited
    Color primaries : BT.709
    Transfer characteristics : BT.709
    Matrix coefficients : BT.709

    Audio #1
    ID : 2
    Format : AC-3
    Format/Info : Audio Coding 3
    Commercial name : Dolby Digital
    Codec ID : A_AC3
    Duration : 2 h 1 min
    Bit rate mode : Constant
    Bit rate : 384 kb/s
    Channel(s) : 2 channels
    Channel layout : L R
    Sampling rate : 48.0 kHz
    Frame rate : 31.250 FPS (1536 SPF)
    Compression mode : Lossy
    Delay relative to video : -5 ms
    Stream size : 333 MiB (4%)
    Title : ThaiRong
    Language : Thai
    Service kind : Complete Main
    Default : Yes
    Forced : Yes

    Audio #2
    ID : 3
    Format : AC-3
    Format/Info : Audio Coding 3
    Commercial name : Dolby Digital
    Codec ID : A_AC3
    Duration : 2 h 1 min
    Bit rate mode : Constant
    Bit rate : 320 kb/s
    Channel(s) : 2 channels
    Channel layout : L R
    Sampling rate : 48.0 kHz
    Frame rate : 31.250 FPS (1536 SPF)
    Compression mode : Lossy
    Delay relative to video : -5 ms
    Stream size : 278 MiB (4%)
    Title : English
    Language : English
    Service kind : Complete Main
    Default : No
    Forced : No





    The.Fall.Guy.2024.1080p.HDTS.x264_Mr.Captain.mkv
    http://www.filecondo.com/dl.php?f=2e08381S5qiS

    7.99 GB

  2. The Following 3 Users Say Thank You to Duckload.us For This Useful Post:

    Jodz14 (05-20-2024), sawara (05-13-2024), Wesker_TOT (05-11-2024)

  3. #2
    Senior Member
    สมัครเมื่อ
    Dec 2013
    โพสต์
    6,232
    Thanks
    8,215
    Thanked 0 Times in 0 Posts
    ขอบคุณครับ...

  4. #3
    Senior Member
    สมัครเมื่อ
    Dec 2013
    โพสต์
    1,057
    Thanks
    1,019
    Thanked 0 Times in 0 Posts
    ขอบคุณครับบ

+ ตอบกลับกระทู้

ข้อมูลกระทู้

Users Browsing this Thread

ในขณะนี้มี 1 ท่านดูกระทู้อยู่. (0 สมาชิกและ 1 ผู้เยี่ยมชม)

     

กฎการโพสต์ข้อความ

  • ท่าน ไม่สามารถ ตั้งกระทู้ใหม่ได้
  • ท่าน ไม่สามารถ ตอบกระทู้ได้
  • ท่าน ไม่สามารถ แนบไฟล์ได้
  • ท่าน ไม่สามารถ แก้ไขข้อความโพสต์ได้
  • BB code สถานะ เปิด
  • Smilies สถานะ เปิด
  • [IMG] สถานะ เปิด
  • HTML สถานะ ปิด