+ ตอบกลับกระทู้
สรุปผลการค้นหา 1 ถึง 3 จากทั้งหมด 3
  1. #1
    Administrators รูปส่วนตัว Duckload.us
    สมัครเมื่อ
    Dec 2010
    โพสต์
    151,649
    Thanks
    7
    Thanked 158,661 Times in 69,352 Posts

    Lightbulb [ฝรั่ง]-[* ใหม่ร้อนๆ! + เสียงไทยโรงชัด *] • Kingdom of the Planet of the Apes (2024) : อาณาจักรแห่งพิภพวานร • [พากย์ไทยโรง 2.0 + เสียงอังกฤษ 2.0] • [* HDCAM.H264.1080p! *]



    ••• Kingdom.of.the.Planet.of.the.Apes.2024.1080p.HDCAM .H264.THR •••
    เสียง : พากย์ไทยโรง + เสียงอังกฤษ

    Kingdom of the Planet of the Apes ผ่านไปหลายชั่วอายุคนภายใต้การปกครองของ ซีซาร์ เหล่าวานรก็ได้ก้าวขึ้นมาเป็นสปีชีส์ที่ปกครองโลกใบน ี้ โดยอาศัยอยู่อย่างสงบสุข ในขณะที่มนุษย์ต้องอยู่อาศัยกันอย่างหลบ ๆ ซ่อน ๆ อย่างไรก็ตาม ก็ได้มีวานรทรราชคนใหม่ได้สร้างอาณาจักรของเขาขึ้นมา ทำให้ โนอาห์ วานรหนุ่มต้องออกเดินทางเพื่อค้นหาคำตอบเกี่ยวกับอดี ตที่เขาเคยรู้ เพื่อที่จะทำการตัดสินใจครั้งสำคัญที่จะกำหนดอนาคตขอ งเหล่าวานรและมนุษย์ต่อไป!

    Format : Matroska
    Format version : Version 4
    File size : 3.71 GiB
    Duration : 2 h 14 min
    Overall bit rate : 3 960 kb/s
    Movie name : Kingdom.of.the.Planet.of.the.Apes.2024.1080p.HDCAM .H264.THR_Mr.Captain@BearBit
    Encoded date : UTC 2024-05-09 17:13:45
    Writing application : mkvmerge v79.0 ('Funeral Pyres') 64-bit
    Writing library : libebml v1.4.4 + libmatroska v1.7.1

    Video
    ID : 1
    Format : AVC
    Format/Info : Advanced Video Codec
    Format profile : [email protected]
    Format settings : CABAC / 3 Ref Frames
    Format settings, CABAC : Yes
    Format settings, Reference : 3 frames
    Format settings, GOP : M=1, N=30
    Codec ID : V_MPEG4/ISO/AVC
    Duration : 2 h 14 min
    Bit rate : 3 190 kb/s
    Width : 1 920 pixels
    Height : 804 pixels
    Display aspect ratio : 2.40:1
    Frame rate mode : Constant
    Frame rate : 24.000 FPS
    Color space : YUV
    Chroma subsampling : 4:2:0
    Bit depth : 8 bits
    Scan type : Progressive
    Bits/(Pixel*Frame) : 0.086
    Stream size : 2.99 GiB (81%)
    Title : Kingdom.of.the.Planet.of.the.Apes.2024.1080p.HDCAM .H264.THR_Mr.Captain@BearBit
    Language : English
    Default : Yes
    Forced : No

    Audio #1
    ID : 2
    Format : AC-3
    Format/Info : Audio Coding 3
    Commercial name : Dolby Digital
    Codec ID : A_AC3
    Duration : 2 h 14 min
    Bit rate mode : Constant
    Bit rate : 384 kb/s
    Channel(s) : 2 channels
    Channel layout : L R
    Sampling rate : 48.0 kHz
    Frame rate : 31.250 FPS (1536 SPF)
    Compression mode : Lossy
    Stream size : 369 MiB (10%)
    Title : ThaiRong By rezero235789
    Language : Thai
    Service kind : Complete Main
    Default : Yes
    Forced : Yes

    Audio #2
    ID : 3
    Format : AC-3
    Format/Info : Audio Coding 3
    Commercial name : Dolby Digital
    Codec ID : A_AC3
    Duration : 2 h 14 min
    Bit rate mode : Constant
    Bit rate : 384 kb/s
    Channel(s) : 2 channels
    Channel layout : L R
    Sampling rate : 48.0 kHz
    Frame rate : 31.250 FPS (1536 SPF)
    Compression mode : Lossy
    Stream size : 369 MiB (10%)
    Title : English
    Language : English
    Service kind : Complete Main
    Default : Yes
    Forced : No



    Kingdom.of.the.Planet.of.the.Apes.2024.1080p.HDCAM .H264.THR_Mr.Captain.mkv
    http://www.filecondo.com/dl.php?f=lba6701S5pMH

    3.99 GB

  2. The Following User Says Thank You to Duckload.us For This Useful Post:

    Wesker_TOT (05-11-2024)

  3. #2
    Senior Member
    สมัครเมื่อ
    Dec 2013
    โพสต์
    6,232
    Thanks
    8,215
    Thanked 0 Times in 0 Posts
    ขอบคุณครับ...

  4. #3
    Junior Member
    สมัครเมื่อ
    Jun 2015
    โพสต์
    1
    Thanks
    0
    Thanked 0 Times in 0 Posts

    Gadgets, travel, experiences - win what you want!


+ ตอบกลับกระทู้

ข้อมูลกระทู้

Users Browsing this Thread

ในขณะนี้มี 1 ท่านดูกระทู้อยู่. (0 สมาชิกและ 1 ผู้เยี่ยมชม)

     

กฎการโพสต์ข้อความ

  • ท่าน ไม่สามารถ ตั้งกระทู้ใหม่ได้
  • ท่าน ไม่สามารถ ตอบกระทู้ได้
  • ท่าน ไม่สามารถ แนบไฟล์ได้
  • ท่าน ไม่สามารถ แก้ไขข้อความโพสต์ได้
  • BB code สถานะ เปิด
  • Smilies สถานะ เปิด
  • [IMG] สถานะ เปิด
  • HTML สถานะ ปิด