+ ตอบกลับกระทู้
สรุปผลการค้นหา 1 ถึง 4 จากทั้งหมด 4
  1. #1
    Administrators รูปส่วนตัว Duckload.us
    สมัครเมื่อ
    Dec 2010
    โพสต์
    151,649
    Thanks
    7
    Thanked 158,661 Times in 69,352 Posts

    Lightbulb [ฝรั่ง]-[* ใหม่ร้อนๆ! + เสียงไทยโรง 5.1-ซับไทยแกะจากเสียงโรง *] • When Evil Lurks (2023) : ปีศาจ ลวง ตาย • [พากย์ไทยโรง DD 5.1 + เสียงสเปน DTS: 5.1] • [บรรยาย: ไทย-อังกฤษ + ซับ PGS คมชัด] • [* BDRip.H265.1080p! *]




    ••• When.Evil.Lurks.2023.1080p.BDRip.DTS-HD.MA.H265.THR •••
    เสียง : พากย์ไทยโรง + เสียงสเปน บรรยาย : ไทย + อังกฤษ

    WHEN EVIL LURKS ณ หมู่บ้านเล็ก ๆ ที่ตั้งอยู่ในพื้นที่ห่างไกล สองพี่น้องได้บังเอิญไปพบกับชายที่มีลักษณะแปลกประหล าดคล้ายกับกำลังป่วยและติดเชื้อบางอย่าง ที่พวกเขาเชื่อว่าเป็นเชื้อจากปีศาจร้าย ที่กำลังจะก่อกำเนิดความชั่วร้ายนำมาสู่หมู่บ้าน เพียงไม่นานชายคนนั้นก็สิ้นใจลง พวกเขาจึงตัดสินใจที่จะกำจัดศพ แต่มันกลับกลายเป็นความโกลาหลของการแพร่กระจายเชื้อไ ปแบบไม่ได้ตั้งใจ!!

    Format : Matroska
    Format version : Version 4
    File size : 7.37 GiB
    Duration : 1 h 39 min
    Overall bit rate : 10.6 Mb/s
    Movie name : When.Evil.Lurks.2023.1080p.BDRip.DTS-HD.MA.H265.THR_Mr.Captain@BearBit

    Video
    ID : 1
    Format : HEVC
    Format/Info : High Efficiency Video Coding
    Format profile : Main 10@L4@High
    Codec ID : V_MPEGH/ISO/HEVC
    Duration : 1 h 39 min
    Bit rate : 6 164 kb/s
    Width : 1 920 pixels
    Height : 804 pixels
    Display aspect ratio : 2.40:1
    Frame rate mode : Constant
    Frame rate : 23.976 (24000/1001) FPS
    Color space : YUV
    Chroma subsampling : 4:2:0
    Bit depth : 10 bits
    Bits/(Pixel*Frame) : 0.167
    Stream size : 4.29 GiB (58%)
    Title : When.Evil.Lurks.2023.1080p.BDRip.DTS-HD.MA.H265.THR_Mr.Captain@BearBit
    Language : Spanish
    Default : Yes
    Forced : No
    Color range : Limited
    Color primaries : BT.709
    Transfer characteristics : BT.709
    Matrix coefficients : BT.709

    Audio #1
    ID : 2
    Format : AC-3
    Format/Info : Audio Coding 3
    Commercial name : Dolby Digital
    Codec ID : A_AC3
    Duration : 1 h 39 min
    Bit rate mode : Constant
    Bit rate : 640 kb/s
    Channel(s) : 6 channels
    Channel layout : L R C LFE Ls Rs
    Sampling rate : 48.0 kHz
    Frame rate : 31.250 FPS (1536 SPF)
    Compression mode : Lossy
    Stream size : 456 MiB (6%)
    Title : ThaiRong DD5.1
    Language : Thai
    Service kind : Complete Main
    Default : Yes
    Forced : No

    Audio #2
    ID : 3
    Format : DTS XLL
    Format/Info : Digital Theater Systems
    Commercial name : DTS-HD Master Audio
    Codec ID : A_DTS
    Duration : 1 h 39 min
    Bit rate mode : Variable
    Bit rate : 3 696 kb/s
    Channel(s) : 6 channels
    Channel layout : C L R Ls Rs LFE
    Sampling rate : 48.0 kHz
    Frame rate : 93.750 FPS (512 SPF)
    Bit depth : 24 bits
    Compression mode : Lossless
    Stream size : 2.57 GiB (35%)
    Title : Spanish DTS-HD MA
    Language : Spanish
    Default : Yes
    Forced : No

    Text #1
    ID : 4
    Format : PGS
    Codec ID : S_HDMV/PGS
    Codec ID/Info : Picture based subtitle format used on BDs/HD-DVDs
    Duration : 1 h 34 min
    Bit rate : 30.0 kb/s
    Count of elements : 1962
    Stream size : 20.3 MiB (0%)
    Title : Thai PGS
    Language : Thai
    Default : No
    Forced : No

    Text #2
    ID : 5
    Format : VobSub
    Codec ID : S_VOBSUB
    Codec ID/Info : Picture based subtitle format used on DVDs
    Duration : 1 h 34 min
    Bit rate : 7 198 b/s
    Count of elements : 981
    Stream size : 4.89 MiB (0%)
    Title : Thai VobSub
    Language : Thai
    Default : No
    Forced : No

    Text #3
    ID : 6
    Format : VobSub
    Codec ID : S_VOBSUB
    Codec ID/Info : Picture based subtitle format used on DVDs
    Duration : 1 h 34 min
    Bit rate : 7 198 b/s
    Count of elements : 981
    Stream size : 4.89 MiB (0%)
    Title : Thai VobSub [Yellow]
    Language : Thai
    Default : No
    Forced : No

    Text #4
    ID : 7
    Format : PGS
    Codec ID : S_HDMV/PGS
    Codec ID/Info : Picture based subtitle format used on BDs/HD-DVDs
    Duration : 1 h 32 min
    Bit rate : 29.6 kb/s
    Count of elements : 2578
    Stream size : 19.5 MiB (0%)
    Title : English PGS
    Language : English
    Default : No
    Forced : No

    Text #5
    ID : 8
    Format : VobSub
    Codec ID : S_VOBSUB
    Codec ID/Info : Picture based subtitle format used on DVDs
    Duration : 1 h 32 min
    Bit rate : 6 975 b/s
    Count of elements : 1286
    Stream size : 4.59 MiB (0%)
    Title : English VobSub
    Language : English
    Default : No
    Forced : No














    When.Evil.Lurks.2023.1080p.BDRip.DTS-HD.MA.H265.THR_Mr.Captain.mkv
    http://www.filecondo.com/dl.php?f=Wd15201S6x6F

    7.91 GB

  2. The Following 2 Users Say Thank You to Duckload.us For This Useful Post:

    sawara (05-13-2024), Wesker_TOT (05-14-2024)

  3. #2
    Senior Member
    สมัครเมื่อ
    Dec 2013
    โพสต์
    1,057
    Thanks
    1,019
    Thanked 0 Times in 0 Posts
    ขอบคุณครับบ

  4. #3
    Senior Member
    สมัครเมื่อ
    Dec 2013
    โพสต์
    6,232
    Thanks
    8,215
    Thanked 0 Times in 0 Posts
    ขอบคุณครับ...

  5. #4

+ ตอบกลับกระทู้

ข้อมูลกระทู้

Users Browsing this Thread

ในขณะนี้มี 1 ท่านดูกระทู้อยู่. (0 สมาชิกและ 1 ผู้เยี่ยมชม)

     

กฎการโพสต์ข้อความ

  • ท่าน ไม่สามารถ ตั้งกระทู้ใหม่ได้
  • ท่าน ไม่สามารถ ตอบกระทู้ได้
  • ท่าน ไม่สามารถ แนบไฟล์ได้
  • ท่าน ไม่สามารถ แก้ไขข้อความโพสต์ได้
  • BB code สถานะ เปิด
  • Smilies สถานะ เปิด
  • [IMG] สถานะ เปิด
  • HTML สถานะ ปิด