+ ตอบกลับกระทู้
สรุปผลการค้นหา 1 ถึง 6 จากทั้งหมด 6
  1. #1
    Administrators รูปส่วนตัว Duckload.us
    สมัครเมื่อ
    Dec 2010
    โพสต์
    151,649
    Thanks
    7
    Thanked 158,661 Times in 69,352 Posts

    Lightbulb [ฝรั่ง]-Godzilla x Kong: The New Empire (2024) [1080p WEB-DL] [เสียง: ไทย DD+ 5.1 + AAC 5.1/อังกฤษ DD+ 5.1] [Sub: ไทย/อังกฤษ SRT]-WEB-DL.H.264.1080p. [Master]-[พากย์ไทย บรรยายไทย]



    -เรื่องย่อ-
    ศึกครั้งยิ่งใหญ่ยังคงดำเนินต่อไปการผจญภัยครั้งใหม่ ที่ทำให้คองผู้ยิ่งใหญ่และก็อดซิลล่าผู้น่าสะพรึงต้อ งเผชิญหน้ากับภัยคุกคามขนาดมหึมาที่ซ่อนอยู่ภายในโลก ของเรา และยังท้าทายการดำรงอยู่ของพวกมันรวมถึงมนุษยชาติด้ว ย

    Video
    ID : 1
    Format : AVC
    Format/Info : Advanced Video Codec
    Format profile : High@L4
    Format settings : CABAC / 4 Ref Frames
    Format settings, CABAC : Yes
    Format settings, Reference : 4 frames
    Codec ID : V_MPEG4/ISO/AVC
    Duration : 1 h 55 min
    Bit rate mode : Constant
    Bit rate : 9 217 kb/s
    Nominal bit rate : 10 000 kb/s
    Width : 1 920 pixels
    Height : 800 pixels
    Display aspect ratio : 2.40:1
    Frame rate mode : Constant
    Frame rate : 23.976 (24000/1001) FPS
    Color space : YUV
    Chroma subsampling : 4:2:0
    Bit depth : 8 bits
    Scan type : Progressive
    Bits/(Pixel*Frame) : 0.250
    Stream size : 7.44 GiB (87%)
    Language : English
    Default : Yes
    Forced : No
    Color range : Limited
    Color primaries : BT.709
    Transfer characteristics : BT.709
    Matrix coefficients : BT.709

    Audio #1
    ID : 2
    Format : E-AC-3
    Format/Info : Enhanced AC-3
    Commercial name : Dolby Digital Plus
    Codec ID : A_EAC3
    Duration : 1 h 55 min
    Bit rate mode : Constant
    Bit rate : 640 kb/s
    Channel(s) : 6 channels
    Channel layout : L R C LFE Ls Rs
    Sampling rate : 48.0 kHz
    Frame rate : 31.250 FPS (1536 SPF)
    Compression mode : Lossy
    Stream size : 529 MiB (6%)
    Title : English (DD+ 5.1 - Amazon)
    Language : English
    Service kind : Complete Main
    Default : No
    Forced : No

    Audio #2
    ID : 3
    Format : E-AC-3
    Format/Info : Enhanced AC-3
    Commercial name : Dolby Digital Plus
    Codec ID : A_EAC3
    Duration : 1 h 54 min
    Bit rate mode : Constant
    Bit rate : 384 kb/s
    Channel(s) : 6 channels
    Channel layout : L R C LFE Ls Rs
    Sampling rate : 48.0 kHz
    Frame rate : 31.250 FPS (1536 SPF)
    Compression mode : Lossy
    Delay relative to video : 1 s 0 ms
    Stream size : 315 MiB (4%)
    Title : Thai (DD+ 5.1 - Google Play)
    Language : Thai
    Service kind : Complete Main
    Default : Yes
    Forced : No

    Audio #3
    ID : 4
    Format : AAC LC
    Format/Info : Advanced Audio Codec Low Complexity
    Codec ID : A_AAC-2
    Duration : 1 h 54 min
    Bit rate : 384 kb/s
    Channel(s) : 6 channels
    Channel layout : C L R Ls Rs LFE
    Sampling rate : 48.0 kHz
    Frame rate : 46.875 FPS (1024 SPF)
    Compression mode : Lossy
    Delay relative to video : 1 s 0 ms
    Stream size : 317 MiB (4%)
    Title : Thai (AAC 5.1 - Google Play)
    Language : Thai
    Default : Yes
    Forced : No

    Text #1
    ID : 5
    Format : UTF-8
    Codec ID : S_TEXT/UTF8
    Codec ID/Info : UTF-8 Plain Text
    Duration : 1 h 54 min
    Bit rate : 53 b/s
    Frame rate : 0.242 FPS
    Count of elements : 1657
    Stream size : 44.6 KiB (0%)
    Title : English (SRT - Google Play)
    Language : English
    Default : No
    Forced : No

    Text #2
    ID : 6
    Format : UTF-8
    Codec ID : S_TEXT/UTF8
    Codec ID/Info : UTF-8 Plain Text
    Duration : 1 h 43 min
    Bit rate : 7 b/s
    Frame rate : 0.014 FPS
    Count of elements : 89
    Stream size : 5.79 KiB (0%)
    Title : Thai (Forced - SRT - Google Play)
    Language : Thai
    Default : Yes
    Forced : Yes

    Text #3
    ID : 7
    Format : UTF-8
    Codec ID : S_TEXT/UTF8
    Codec ID/Info : UTF-8 Plain Text
    Duration : 1 h 53 min
    Bit rate : 75 b/s
    Frame rate : 0.115 FPS
    Count of elements : 780
    Stream size : 63.1 KiB (0%)
    Title : Thai (SRT - Google Play)
    Language : Thai
    Default : Yes
    Forced : No

    Menu
    00:00:01.013 : en:Chapter 01
    01:46:40.013 : en:Credits






    Godzilla.x.Kong.The.New.Empire.2024.1080p.AMZN.WEB-DL.DDP5.1.H.264.mkv
    http://www.filecondo.com/dl.php?f=Mc13a61S6IdK

    9.21 GB

    Godzilla_X_Kong_The_New_Empire_(2024).mp4
    http://www.filecondo.com/dl.php?f=n7fe921S6Slt
    2.78 GB

    4K
    Godzilla_X_Kong_The_New_Empire_(2024)_[4K_WEB][Suriya2009].mkv
    http://www.filecondo.com/dl.php?f=E3a8081S6SDb
    8.01 GB


    Godzilla.x.Kong.The.New.Empire.2024.2160p.AMZN.HYB RID.WEB-DL.DDP5.1.H.265.mkv
    http://www.filecondo.com/dl.php?f=k469191S6IGh
    18.36 GB

  2. The Following 7 Users Say Thank You to Duckload.us For This Useful Post:

    bigbang06 (05-15-2024), Jodz14 (05-19-2024), masaomi (05-15-2024), Nam1499 (05-15-2024), petpina2010 (05-15-2024), scsyn (05-15-2024), Wesker_TOT (05-15-2024)

  3. #2
    Junior Member
    สมัครเมื่อ
    May 2024
    โพสต์
    1
    Thanks
    0
    Thanked 0 Times in 0 Posts
    รอๆๆ เลยครับ

  4. #3
    Senior Member
    สมัครเมื่อ
    Dec 2013
    โพสต์
    6,232
    Thanks
    8,215
    Thanked 0 Times in 0 Posts
    ขอบคุณครับ...

  5. #4
    Senior Member รูปส่วนตัว petpina2010
    สมัครเมื่อ
    Jun 2020
    โพสต์
    251
    Thanks
    252
    Thanked 0 Times in 0 Posts
    ขอบคุณครับ

  6. #5
    Senior Member
    สมัครเมื่อ
    Feb 2024
    โพสต์
    333
    Thanks
    301
    Thanked 0 Times in 0 Posts
    ข อ บ คุ ณ ม า ก ค่ ะ

  7. #6
    Senior Member
    สมัครเมื่อ
    Oct 2013
    โพสต์
    2,532
    Thanks
    0
    Thanked 0 Times in 0 Posts
    ขอบคุณครับ

+ ตอบกลับกระทู้

ข้อมูลกระทู้

Users Browsing this Thread

ในขณะนี้มี 1 ท่านดูกระทู้อยู่. (0 สมาชิกและ 1 ผู้เยี่ยมชม)

     

กฎการโพสต์ข้อความ

  • ท่าน ไม่สามารถ ตั้งกระทู้ใหม่ได้
  • ท่าน ไม่สามารถ ตอบกระทู้ได้
  • ท่าน ไม่สามารถ แนบไฟล์ได้
  • ท่าน ไม่สามารถ แก้ไขข้อความโพสต์ได้
  • BB code สถานะ เปิด
  • Smilies สถานะ เปิด
  • [IMG] สถานะ เปิด
  • HTML สถานะ ปิด