+ ตอบกลับกระทู้
สรุปผลการค้นหา 1 ถึง 2 จากทั้งหมด 2
  1. #1
    Administrators รูปส่วนตัว Duckload.us
    สมัครเมื่อ
    Dec 2010
    โพสต์
    151,649
    Thanks
    7
    Thanked 158,661 Times in 69,352 Posts

    Lightbulb [ฝรั่ง]-[* ซูม V2! + เสียงไทยโรงชัด *] • Kingdom of the Planet of the Apes (2024) : อาณาจักรแห่งพิภพวานร • [พากย์ไทยโรง 2.0 + เสียงอังกฤษ 2.0] • [บรรยาย: ไทย(ภาษามือ)-ซับ PGS คมชัด] • [* CleanCam.H264.1080p! *]



    ••• Kingdom.of.the.Planet.of.the.Apes.2024.1080p.V2.Cl ean.Cam.H264 •••
    เสียง : พากย์ไทยโรง + เสียงอังกฤษ บรรยาย : ไทย(ภาษามือ)

    Kingdom of the Planet of the Apes ผ่านไปหลายชั่วอายุคนภายใต้การปกครองของ ซีซาร์ เหล่าวานรก็ได้ก้าวขึ้นมาเป็นสปีชีส์ที่ปกครองโลกใบน ี้ โดยอาศัยอยู่อย่างสงบสุข ในขณะที่มนุษย์ต้องอยู่อาศัยกันอย่างหลบ ๆ ซ่อน ๆ อย่างไรก็ตาม ก็ได้มีวานรทรราชคนใหม่ได้สร้างอาณาจักรของเขาขึ้นมา ทำให้ โนอาห์ วานรหนุ่มต้องออกเดินทางเพื่อค้นหาคำตอบเกี่ยวกับอดี ตที่เขาเคยรู้ เพื่อที่จะทำการตัดสินใจครั้งสำคัญที่จะกำหนดอนาคตขอ งเหล่าวานรและมนุษย์ต่อไป!

    Format : Matroska
    Format version : Version 4
    File size : 3.52 GiB
    Duration : 2 h 16 min
    Overall bit rate : 3 689 kb/s
    Movie name : Kingdom.of.the.Planet.of.the.Apes.2024.1080p.V2.Cl ean.Cam.H264_Mr.Captain@BearBit

    Video
    ID : 1
    Format : AVC
    Format/Info : Advanced Video Codec
    Format profile : Main@L4
    Format settings : CABAC / 4 Ref Frames
    Format settings, CABAC : Yes
    Format settings, Reference : 4 frames
    Codec ID : V_MPEG4/ISO/AVC
    Duration : 2 h 16 min
    Bit rate mode : Variable
    Bit rate : 3 079 kb/s
    Maximum bit rate : 9 414 kb/s
    Width : 1 918 pixels
    Height : 872 pixels
    Display aspect ratio : 2.2:1
    Frame rate mode : Constant
    Frame rate : 23.976 (24000/1001) FPS
    Color space : YUV
    Chroma subsampling : 4:2:0
    Bit depth : 8 bits
    Scan type : Progressive
    Bits/(Pixel*Frame) : 0.077
    Stream size : 2.94 GiB (83%)
    Title : Kingdom.of.the.Planet.of.the.Apes.2024.1080p.V2.Cl ean.Cam.H264_Mr.Captain@BearBit
    Language : English
    Default : Yes
    Forced : No
    Color range : Limited
    Color primaries : BT.709
    Transfer characteristics : BT.709
    Matrix coefficients : BT.709

    Audio #1
    ID : 2
    Format : AC-3
    Format/Info : Audio Coding 3
    Commercial name : Dolby Digital
    Codec ID : A_AC3
    Duration : 2 h 16 min
    Bit rate mode : Constant
    Bit rate : 384 kb/s
    Channel(s) : 2 channels
    Channel layout : L R
    Sampling rate : 48.0 kHz
    Frame rate : 31.250 FPS (1536 SPF)
    Compression mode : Lossy
    Stream size : 375 MiB (10%)
    Title : ThaiRong 2.0
    Language : Thai
    Service kind : Complete Main
    Default : Yes
    Forced : No

    Audio #2
    ID : 3
    Format : AC-3
    Format/Info : Audio Coding 3
    Commercial name : Dolby Digital
    Codec ID : A_AC3
    Duration : 2 h 16 min
    Bit rate mode : Constant
    Bit rate : 224 kb/s
    Channel(s) : 2 channels
    Channel layout : L R
    Sampling rate : 48.0 kHz
    Frame rate : 31.250 FPS (1536 SPF)
    Compression mode : Lossy
    Stream size : 219 MiB (6%)
    Title : English 2.0
    Language : English
    Service kind : Complete Main
    Default : Yes
    Forced : No

    Text
    ID : 4
    Format : PGS
    Codec ID : S_HDMV/PGS
    Codec ID/Info : Picture based subtitle format used on BDs/HD-DVDs
    Duration : 2 h 12 min
    Bit rate : 262 b/s
    Count of elements : 30
    Stream size : 254 KiB (0%)
    Title : Thai PGS [Sign language]
    Language : Thai
    Default : Yes
    Forced : Yes



    Kingdom.of.the.Planet.of.the.Apes.2024.1080p.V2.Cl ean.Cam.H264_Mr.Captain.mkv
    http://www.filecondo.com/dl.php?f=7ad1901S6Ila

    3.78 GB

  2. The Following User Says Thank You to Duckload.us For This Useful Post:

    Wesker_TOT (05-15-2024)

  3. #2
    Senior Member
    สมัครเมื่อ
    Dec 2013
    โพสต์
    6,232
    Thanks
    8,215
    Thanked 0 Times in 0 Posts
    ขอบคุณครับ...

+ ตอบกลับกระทู้

ข้อมูลกระทู้

Users Browsing this Thread

ในขณะนี้มี 1 ท่านดูกระทู้อยู่. (0 สมาชิกและ 1 ผู้เยี่ยมชม)

     

กฎการโพสต์ข้อความ

  • ท่าน ไม่สามารถ ตั้งกระทู้ใหม่ได้
  • ท่าน ไม่สามารถ ตอบกระทู้ได้
  • ท่าน ไม่สามารถ แนบไฟล์ได้
  • ท่าน ไม่สามารถ แก้ไขข้อความโพสต์ได้
  • BB code สถานะ เปิด
  • Smilies สถานะ เปิด
  • [IMG] สถานะ เปิด
  • HTML สถานะ ปิด