+ ͺѺз
ػšä 1 ֧ 2 ҡ 2
  1. #1
    Administrators ٻǹ Duckload.us
    Ѥ
    Dec 2010
    ʵ
    152,147
    Thanks
    7
    Thanked 159,124 Times in 69,603 Posts

    Lightbulb []-[* *] The Ministry of Ungentlemanly Warfare (2024) : ʺêԡš [ҡç DD 5.1 + §ѧ DDP 5.1 Atmos] [* WEB.1080p! *] [: ( ͹ѹ ⾸٧)-ѧ + Ѻ PGS Ѵ]



    The.Ministry.Of.Ungentlemanly.Warfare.2024.1080p.W EB.H264.THR
    § : ҡç + §ѧ : ( ͹ѹ ⾸٧) + ѧ

    The Ministry of Ungentlemanly Warfare çѹ㨨ҡ˵ءóԧ ҴͧѺͧ ¹ ԧ ѡ¹ ͹ й¡Ѱѧ ʵѹ طȵطԸ ѹҺ ͷʧѺǡҫ!

    Format : Matroska
    Format version : Version 4
    File size : 6.82 GiB
    Duration : 2 h 0 min
    Overall bit rate : 8 116 kb/s
    Movie name : The.Ministry.Of.Ungentlemanly.Warfare.2024.1080p.W EB.H264.THR_Mr.Captain@BearBit

    Video
    ID : 1
    Format : AVC
    Format/Info : Advanced Video Codec
    Format profile : High@L4
    Format settings : CABAC / 5 Ref Frames
    Format settings, CABAC : Yes
    Format settings, Reference : 5 frames
    Codec ID : V_MPEG4/ISO/AVC
    Duration : 2 h 0 min
    Bit rate : 6 598 kb/s
    Width : 1 918 pixels
    Height : 796 pixels
    Display aspect ratio : 2.40:1
    Frame rate mode : Constant
    Frame rate : 23.976 (24000/1001) FPS
    Original frame rate : 47.952 (48000/1001) FPS
    Color space : YUV
    Chroma subsampling : 4:2:0
    Bit depth : 8 bits
    Scan type : Progressive
    Bits/(Pixel*Frame) : 0.180
    Stream size : 5.55 GiB (81%)
    Title : The.Ministry.Of.Ungentlemanly.Warfare.2024.1080p.W EB.H264.THR_Mr.Captain@BearBit
    Language : English
    Default : Yes
    Forced : No
    Color range : Limited
    Color primaries : BT.709
    Transfer characteristics : BT.709
    Matrix coefficients : BT.709

    Audio #1
    ID : 2
    Format : AC-3
    Format/Info : Audio Coding 3
    Commercial name : Dolby Digital
    Codec ID : A_AC3
    Duration : 2 h 0 min
    Bit rate mode : Constant
    Bit rate : 640 kb/s
    Channel(s) : 6 channels
    Channel layout : L R C LFE Ls Rs
    Sampling rate : 48.0 kHz
    Frame rate : 31.250 FPS (1536 SPF)
    Compression mode : Lossy
    Stream size : 551 MiB (8%)
    Title : Thai Rong DD 5.1
    Language : Thai
    Service kind : Complete Main
    Default : Yes
    Forced : No

    Audio #2
    ID : 3
    Format : E-AC-3 JOC
    Format/Info : Enhanced AC-3 with Joint Object Coding
    Commercial name : Dolby Digital Plus with Dolby Atmos
    Codec ID : A_EAC3
    Duration : 2 h 0 min
    Bit rate mode : Constant
    Bit rate : 768 kb/s
    Channel(s) : 6 channels
    Channel layout : L R C LFE Ls Rs
    Sampling rate : 48.0 kHz
    Frame rate : 31.250 FPS (1536 SPF)
    Compression mode : Lossy
    Stream size : 661 MiB (9%)
    Title : English DDP 5.1 Atmos
    Language : English
    Service kind : Complete Main
    Default : Yes
    Forced : No
    Complexity index : 16
    Number of dynamic objects : 15
    Bed channel count : 1 channel
    Bed channel configuration : LFE

    Text #1
    ID : 4
    Format : PGS
    Codec ID : S_HDMV/PGS
    Codec ID/Info : Picture based subtitle format used on BDs/HD-DVDs
    Duration : 1 h 49 min
    Bit rate : 36.2 kb/s
    Count of elements : 3092
    Stream size : 28.4 MiB (0%)
    Title : Thai PGS
    Language : Thai
    Default : Yes
    Forced : Yes

    Text #2
    ID : 5
    Format : VobSub
    Codec ID : S_VOBSUB
    Codec ID/Info : Picture based subtitle format used on DVDs
    Duration : 1 h 49 min
    Bit rate : 8 473 b/s
    Count of elements : 1540
    Stream size : 6.65 MiB (0%)
    Title : Thai VobSub
    Language : Thai
    Default : No
    Forced : Yes

    Text #3
    ID : 6
    Format : VobSub
    Codec ID : S_VOBSUB
    Codec ID/Info : Picture based subtitle format used on DVDs
    Duration : 1 h 49 min
    Bit rate : 8 473 b/s
    Count of elements : 1540
    Stream size : 6.65 MiB (0%)
    Title : Thai VobSub [Yellow]
    Language : Thai
    Default : No
    Forced : Yes

    Text #4
    ID : 7
    Format : UTF-8
    Codec ID : S_TEXT/UTF8
    Codec ID/Info : UTF-8 Plain Text
    Duration : 1 h 49 min
    Bit rate : 129 b/s
    Count of elements : 1546
    Stream size : 104 KiB (0%)
    Title : Thai by ͹ѹ ⾸٧
    Language : Thai
    Default : No
    Forced : Yes

    Text #5
    ID : 8
    Format : PGS
    Codec ID : S_HDMV/PGS
    Codec ID/Info : Picture based subtitle format used on BDs/HD-DVDs
    Duration : 1 h 59 min
    Bit rate : 47.3 kb/s
    Count of elements : 4072
    Stream size : 40.3 MiB (1%)
    Title : English PGS
    Language : English
    Default : No
    Forced : Yes

    Text #6
    ID : 9
    Format : VobSub
    Codec ID : S_VOBSUB
    Codec ID/Info : Picture based subtitle format used on DVDs
    Duration : 1 h 59 min
    Bit rate : 11.5 kb/s
    Count of elements : 2036
    Stream size : 9.78 MiB (0%)
    Title : English VobSub
    Language : Thai
    Default : No
    Forced : Yes














    The.Ministry.Of.Ungentlemanly.Warfare.2024.1080p.W EB.H264.THR_Mr.Captain.mkv
    http://www.filecondo.com/dl.php?f=R0fe581S9JqM

    7.33 GB

  2. The Following User Says Thank You to Duckload.us For This Useful Post:

    noi54 (05-26-2024)

  3. #2
    Senior Member
    Ѥ
    Jan 2019
    ʵ
    105
    Thanks
    0
    Thanked 0 Times in 0 Posts
    ͺسѺ

šз

Users Browsing this Thread

㹢й 1 ҹ١з. (0 Ҫԡ 1 )

     

ʵͤ

  • ҹ ö 駡з
  • ҹ ö ͺз
  • ҹ ö
  • ҹ ö 䢢ͤʵ