+ ตอบกลับกระทู้
สรุปผลการค้นหา 1 ถึง 2 จากทั้งหมด 2
  1. #1
    Administrators รูปส่วนตัว Duckload.us
    สมัครเมื่อ
    Dec 2010
    โพสต์
    152,147
    Thanks
    7
    Thanked 159,125 Times in 69,604 Posts

    Lightbulb [ฝรั่ง]-[* ใหม่ร้อนๆ! + เสียงไทยโรง 5.1 - ซับไทย(แกะจากเสียงโรง) *] • Civil War (2024) : วิบัติสมรภูมิเมืองเดือด • [พากย์ไทยโรง DD 5.1 + เสียงอังกฤษ DDP 5.1 Atmos] • [บรรยาย: ไทย-อังกฤษ + ซับ PGS คมชัด] • [* WEB.1080p! *]



    ••• Civil.War.2024.1080p.WEB.H264.THR •••
    เสียง : พากย์ไทยโรง + เสียงอังกฤษ บรรยาย : ไทย (แกะจากเสียงโรง) + อังกฤษ

    Civil War เมื่อแผ่นดินแตกเป็นเสี่ยง มหาสงครามจึงวิบัติ เมื่อสหรัฐอเมริกาแบ่งฝ่ายและสู้รบกันเอง เพื่อโค่นล้มประธานาธิบดีที่ใช้อำนาจกับประชาชนอย่าง มิชอบ และภารกิจของกลุ่มนักข่าว ที่ต้องฝ่านรก 800 ไมล์สู่กรุง Washington DC ที่เต็มไปด้วยห่ากระสุน ถึงเวลาแล้วที่คุณต้องเลือกข้าง ว่า 'คุณ' คือ คนอเมริกันแบบไหน!?!

    Format : Matroska
    Format version : Version 4
    File size : 8.58 GiB
    Duration : 1 h 48 min
    Overall bit rate : 11.3 Mb/s
    Movie name : Civil.War.2024.1080p.WEB.H264.THR_Mr.Captain@BearB it

    Video
    ID : 1
    Format : AVC
    Format/Info : Advanced Video Codec
    Format profile : High@L4
    Format settings : CABAC / 4 Ref Frames
    Format settings, CABAC : Yes
    Format settings, Reference : 4 frames
    Codec ID : V_MPEG4/ISO/AVC
    Duration : 1 h 48 min
    Bit rate : 9 816 kb/s
    Width : 1 918 pixels
    Height : 1 036 pixels
    Display aspect ratio : 1.85:1
    Frame rate mode : Constant
    Frame rate : 23.976 (24000/1001) FPS
    Original frame rate : 47.952 (48000/1001) FPS
    Color space : YUV
    Chroma subsampling : 4:2:0
    Bit depth : 8 bits
    Scan type : Progressive
    Bits/(Pixel*Frame) : 0.206
    Stream size : 7.46 GiB (87%)
    Title : Civil.War.2024.1080p.WEB.H264.THR_Mr.Captain@BearB it
    Language : English
    Default : Yes
    Forced : No
    Color range : Limited
    Color primaries : BT.709
    Transfer characteristics : BT.709
    Matrix coefficients : BT.709

    Audio #1
    ID : 2
    Format : AC-3
    Format/Info : Audio Coding 3
    Commercial name : Dolby Digital
    Codec ID : A_AC3
    Duration : 1 h 48 min
    Bit rate mode : Constant
    Bit rate : 640 kb/s
    Channel(s) : 6 channels
    Channel layout : L R C LFE Ls Rs
    Sampling rate : 48.0 kHz
    Frame rate : 31.250 FPS (1536 SPF)
    Compression mode : Lossy
    Stream size : 498 MiB (6%)
    Title : ThaiRong DD 5.1
    Language : Thai
    Service kind : Complete Main
    Default : Yes
    Forced : Yes

    Audio #2
    ID : 3
    Format : E-AC-3 JOC
    Format/Info : Enhanced AC-3 with Joint Object Coding
    Commercial name : Dolby Digital Plus with Dolby Atmos
    Codec ID : A_EAC3
    Duration : 1 h 48 min
    Bit rate mode : Constant
    Bit rate : 768 kb/s
    Channel(s) : 6 channels
    Channel layout : L R C LFE Ls Rs
    Sampling rate : 48.0 kHz
    Frame rate : 31.250 FPS (1536 SPF)
    Compression mode : Lossy
    Stream size : 597 MiB (7%)
    Title : English DDP 5.1 Atmos
    Language : English
    Service kind : Complete Main
    Default : Yes
    Forced : No
    Complexity index : 16
    Number of dynamic objects : 15
    Bed channel count : 1 channel
    Bed channel configuration : LFE

    Text #1
    ID : 4
    Format : PGS
    Codec ID : S_HDMV/PGS
    Codec ID/Info : Picture based subtitle format used on BDs/HD-DVDs
    Duration : 1 h 40 min
    Bit rate : 22.2 kb/s
    Count of elements : 1920
    Stream size : 15.9 MiB (0%)
    Title : Thai PGS
    Language : Thai
    Default : No
    Forced : No

    Text #2
    ID : 5
    Format : VobSub
    Codec ID : S_VOBSUB
    Codec ID/Info : Picture based subtitle format used on DVDs
    Duration : 1 h 40 min
    Bit rate : 5 223 b/s
    Count of elements : 959
    Stream size : 3.75 MiB (0%)
    Title : Thai VobSub
    Language : Thai
    Default : No
    Forced : No

    Text #3
    ID : 6
    Format : VobSub
    Codec ID : S_VOBSUB
    Codec ID/Info : Picture based subtitle format used on DVDs
    Duration : 1 h 40 min
    Bit rate : 5 223 b/s
    Count of elements : 959
    Stream size : 3.75 MiB (0%)
    Title : Thai VobSub [Yellow]
    Language : Thai
    Default : No
    Forced : No

    Text #4
    ID : 7
    Format : UTF-8
    Codec ID : S_TEXT/UTF8
    Codec ID/Info : UTF-8 Plain Text
    Duration : 1 h 40 min
    Bit rate : 78 b/s
    Count of elements : 960
    Stream size : 58.1 KiB (0%)
    Title : Thai
    Language : Thai
    Default : No
    Forced : No

    Text #5
    ID : 8
    Format : PGS
    Codec ID : S_HDMV/PGS
    Codec ID/Info : Picture based subtitle format used on BDs/HD-DVDs
    Duration : 1 h 40 min
    Bit rate : 27.6 kb/s
    Count of elements : 2278
    Stream size : 19.8 MiB (0%)
    Title : English PGS
    Language : English
    Default : No
    Forced : No

    Text #6
    ID : 9
    Format : VobSub
    Codec ID : S_VOBSUB
    Codec ID/Info : Picture based subtitle format used on DVDs
    Duration : 1 h 40 min
    Bit rate : 6 630 b/s
    Count of elements : 1139
    Stream size : 4.75 MiB (0%)
    Title : English VobSub
    Language : English
    Default : No
    Forced : No

    Text #7
    ID : 10
    Format : UTF-8
    Codec ID : S_TEXT/UTF8
    Codec ID/Info : UTF-8 Plain Text
    Duration : 1 h 40 min
    Bit rate : 39 b/s
    Count of elements : 1139
    Stream size : 28.6 KiB (0%)
    Title : English
    Language : English
    Default : No
    Forced : No

    Text #8
    ID : 11
    Format : UTF-8
    Codec ID : S_TEXT/UTF8
    Codec ID/Info : UTF-8 Plain Text
    Duration : 1 h 48 min
    Bit rate : 32 b/s
    Count of elements : 928
    Stream size : 25.9 KiB (0%)
    Title : Latin America Spanish
    Language : Spanish
    Default : No
    Forced : No




















    Civil.War.2024.1080p.WEB.H264.THR_Mr.Captain.mkv
    http://www.filecondo.com/dl.php?f=Oeecfc1SaQ3V

    9.21 GB

  2. The Following 2 Users Say Thank You to Duckload.us For This Useful Post:

    noi54 (05-28-2024), sawara (05-27-2024)

  3. #2
    Senior Member
    สมัครเมื่อ
    Dec 2013
    โพสต์
    1,076
    Thanks
    1,040
    Thanked 0 Times in 0 Posts
    ขอบคุณครับบ

+ ตอบกลับกระทู้

ข้อมูลกระทู้

Users Browsing this Thread

ในขณะนี้มี 1 ท่านดูกระทู้อยู่. (0 สมาชิกและ 1 ผู้เยี่ยมชม)

     

กฎการโพสต์ข้อความ

  • ท่าน ไม่สามารถ ตั้งกระทู้ใหม่ได้
  • ท่าน ไม่สามารถ ตอบกระทู้ได้
  • ท่าน ไม่สามารถ แนบไฟล์ได้
  • ท่าน ไม่สามารถ แก้ไขข้อความโพสต์ได้
  • BB code สถานะ เปิด
  • Smilies สถานะ เปิด
  • [IMG] สถานะ เปิด
  • HTML สถานะ ปิด