+ ตอบกลับกระทู้
สรุปผลการค้นหา 1 ถึง 2 จากทั้งหมด 2
  1. #1
    Administrators รูปส่วนตัว Duckload.us
    สมัครเมื่อ
    Dec 2010
    โพสต์
    152,123
    Thanks
    7
    Thanked 159,105 Times in 69,595 Posts

    Lightbulb [ฝรั่ง]-[ZOOM ชัด V2]Furiosa A Mad Max Saga ฟูริโอซ่า มหากาพย์แมดแม็กซ์ [พากย์ไทยโรง-อังกฤษ][ไม่มีซับ]-HDTV.H.264.1080p. [หนังซูม]-[พากย์ไทยโรง]



    เรื่องย่อ
    เมื่อโลกล่มสลาย สาวน้อย ฟิรูโอซ่า ถูกแย่งชิงจากกลุ่มแมนนี มาเธอร์ส ผู้รักสันติ และตกไปอยู่ในมือของ ไบค์เกอร์ ฮอร์ด ผู้ยิ่งใหญ่ ที่นำโดย วอร์ลอร์ด เดเมนตัส พวกเขากวาดล้างดินแดนรกร้างและพบเข้ากับป้อมปราการซึ ่งมี อิมมอร์ทัล โจ เป็นประธาน ในขณะที่ ไทรแอนท์ ทั้งสองทำสงครามเพื่อแย่งชิงอำนาจ ฟูริโอซ่าจะต้องเอาชีวิตรอดจากการทดลองมากมาย ในขณะเดียวกันเธอก็ต้องหาทางกลับบ้านให้ได้

    General
    Unique ID : 330681272396660876129486711999765349104 (0xF8C6E57E1E948BA3F0DD8B9146D302F0)
    Complete name : D:โหลดบืทFuriosa.A.Mad.Max.Saga.2024.1080p.Cam.X26 4.COLLECTIVEFuriosa.A.Mad.Max.Saga.2024.1080p.Cam. X264.THR.rezero235789.mkv
    Format : Matroska
    Format version : Version 4
    File size : 4.39 GiB
    Duration : 2 h 18 min
    Overall bit rate mode : Variable
    Overall bit rate : 4 529 kb/s
    Frame rate : 24.000 FPS
    Movie name : Furiosa.A.Mad.Max.Saga.2024.1080p.Cam.X264.THR.rez ero235789
    Encoded date : 2024-05-27 11:13:00 UTC
    Writing application : mkvmerge v83.0 ('Circle Of Friends') 64-bit
    Writing library : libebml v1.4.5 + libmatroska v1.7.1 / GPAC-2.2-rev0-gab012bbfb-ab-suite

    Video
    ID : 1
    Format : AVC
    Format/Info : Advanced Video Codec
    Format profile : High@L4
    Format settings : CABAC / 4 Ref Frames
    Format settings, CABAC : Yes
    Format settings, Reference fra : 4 frames
    Codec ID : V_MPEG4/ISO/AVC
    Duration : 2 h 18 min
    Bit rate : 3 905 kb/s
    Width : 1 920 pixels
    Height : 820 pixels
    Display aspect ratio : 2.35:1
    Frame rate mode : Constant
    Frame rate : 24.000 FPS
    Color space : YUV
    Chroma subsampling : 4:2:0
    Bit depth : 8 bits
    Scan type : Progressive
    Bits/(Pixel*Frame) : 0.103
    Stream size : 3.78 GiB (86%)
    Writing library : x264 core 164 r3107 a8b68eb
    Encoding settings : cabac=1 / ref=3 / deblock=1:-1:-1 / analyse=0x3:0x113 / me=hex / subme=7 / psy=1 / psy_rd=1.00:0.15 / mixed_ref=1 / me_range=16 / chroma_me=1 / trellis=1 / 8x8dct=1 / cqm=0 / deadzone=21,11 / fast_pskip=1 / chroma_qp_offset=-3 / threads=24 / lookahead_threads=4 / sliced_threads=0 / nr=0 / decimate=1 / interlaced=0 / bluray_compat=0 / constrained_intra=0 / bframes=3 / b_pyramid=2 / b_adapt=1 / b_bias=0 / direct=1 / weightb=1 / open_gop=0 / weightp=2 / keyint=240 / keyint_min=24 / scenecut=40 / intra_refresh=0 / rc_lookahead=40 / rc=2pass / mbtree=1 / bitrate=3905 / ratetol=1.0 / qcomp=0.60 / qpmin=0 / qpmax=69 / qpstep=4 / cplxblur=20.0 / qblur=0.5 / vbv_maxrate=25000 / vbv_bufsize=31250 / nal_hrd=none / filler=0 / ip_ratio=1.40 / aq=1:1.00
    Default : Yes
    Forced : No

    Audio #1
    ID : 2
    Format : FLAC
    Format/Info : Free Lossless Audio Codec
    Codec ID : A_FLAC
    Duration : 2 h 18 min
    Bit rate mode : Variable
    Bit rate : 398 kb/s
    Channel(s) : 2 channels
    Channel layout : L R
    Sampling rate : 48.0 kHz
    Frame rate : 11.719 FPS (4096 SPF)
    Bit depth : 16 bits
    Compression mode : Lossless
    Stream size : 395 MiB (9%)
    Title : Thai(Rong)By.rezero235789
    Writing library : libFLAC 20080709 (2008-07-09)
    Language : Thai
    Default : Yes
    Forced : Yes
    MD5 of the unencoded content : 00A36FDA5544903C5ACD7A32B0A12EE8

    Audio #2
    ID : 3
    Format : AC-3
    Format/Info : Audio Coding 3
    Commercial name : Dolby Digital
    Codec ID : A_AC3
    Duration : 2 h 18 min
    Bit rate mode : Constant
    Bit rate : 224 kb/s
    Channel(s) : 2 channels
    Channel layout : L R
    Sampling rate : 48.0 kHz
    Frame rate : 31.250 FPS (1536 SPF)
    Compression mode : Lossy
    Stream size : 222 MiB (5%)
    Title : English
    Language : English
    Service kind : Complete Main
    Default : No
    Forced : No



    Furiosa.A.Mad.Max.Saga.2024.1080p.Cam.X264.THR.rez ero235789.mkv
    http://www.filecondo.com/dl.php?f=n7b2e71SbAq0

    4.71 GB

  2. The Following 2 Users Say Thank You to Duckload.us For This Useful Post:

    sawara (05-28-2024), Wesker_TOT (05-28-2024)

  3. #2
    Senior Member
    สมัครเมื่อ
    Dec 2013
    โพสต์
    6,286
    Thanks
    8,269
    Thanked 0 Times in 0 Posts
    ขอบคุณครับ...

+ ตอบกลับกระทู้

ข้อมูลกระทู้

Users Browsing this Thread

ในขณะนี้มี 1 ท่านดูกระทู้อยู่. (0 สมาชิกและ 1 ผู้เยี่ยมชม)

     

กฎการโพสต์ข้อความ

  • ท่าน ไม่สามารถ ตั้งกระทู้ใหม่ได้
  • ท่าน ไม่สามารถ ตอบกระทู้ได้
  • ท่าน ไม่สามารถ แนบไฟล์ได้
  • ท่าน ไม่สามารถ แก้ไขข้อความโพสต์ได้
  • BB code สถานะ เปิด
  • Smilies สถานะ เปิด
  • [IMG] สถานะ เปิด
  • HTML สถานะ ปิด