+ ตอบกลับกระทู้
สรุปผลการค้นหา 1 ถึง 3 จากทั้งหมด 3
  1. #1
    Administrators รูปส่วนตัว Duckload.us
    สมัครเมื่อ
    Dec 2010
    โพสต์
    152,147
    Thanks
    7
    Thanked 159,124 Times in 69,603 Posts

    Lightbulb [ญี่ปุ่น]- Godzilla Minus One (2023)(1080P) [Audio:Eng,French,Indonesian,Japanese,Thai • Sub:Chines,Eng,French,Japanese,Korean,Thai,Vietnam ese]-HDTV.H.264.1080p. [Netflix (web-dl)]-[พากย์ไทย บรรยายไทย]



    เรื่องย่อ

    Godzilla Minus One เล่าย้อนไปถึงเหตุกาณ์ในช่วงปี 1945 ปีที่ญี่ปุ่นต้องยอมพ่ายแพ้ในสงครามโลกครั้งที่ 2 ที่สภาพบ้านเมืองในช่วงเวลาหลังสงครามเหลือแค่เพียงเ ศษซาก เปรียบเทียบกับการเซ็ตค่าประเทศเป็นศูนย์ใหม่อีกครั้ ง แต่ปรากฏว่าญี่ปุ่นยังต้องเผชิญหน้ากับภัยคุกคามจากส ัตว์ประหลาดน่าเกรงข้าม ก็อดซิลลา ปรากฏตัวขึ้น และเป็นภัยต่อผู้คนที่กำลังหาทางลุกขึ้นยืนอีกครั้ง ทำให้พวกเขาต้องหาแนวทางจัดการมาเผชิญหน้ากับสัตว์ยั กษ์ตัวนี้

    General
    Complete name : K:Godzilla Minus OneGodzilla Minus One.mp4
    Format : MPEG-4
    Format profile : Base Media
    Codec ID : isom (isom/dby1/iso2/avc1/mp41)
    File size : 4.20 GiB
    Duration : 2 h 6 min
    Overall bit rate mode : Variable
    Overall bit rate : 4 751 kb/s
    Frame rate : 23.976 FPS
    Movie name : Godzilla Minus One
    Des--cription : ในญี่ปุ่นช่วงหลังสงคราม อดีตนักบินรบที่มีแผลใจต้องร่วมมือกับพี่น้องร่วมชาต ิ เพื่อต่อกรกับอสุรกายยักษ์กลายพันธุ์พลังนิวเคลียร์ ที่โผล่ขึ้นมาอาละวาดบนชายฝั่ง
    Recorded date : 2023
    Writing application : Lavf59.28.100
    Cover : Yes

    Video
    ID : 1
    Format : AVC
    Format/Info : Advanced Video Codec
    Format profile : [email protected]
    Format settings : CABAC / 1 Ref Frames
    Format settings, CABAC : Yes
    Format settings, Reference fra : 1 frame
    Codec ID : avc1
    Codec ID/Info : Advanced Video Coding
    Duration : 2 h 6 min
    Bit rate : 3 422 kb/s
    Width : 1 920 pixels
    Height : 1 080 pixels
    Display aspect ratio : 16:9
    Frame rate mode : Constant
    Frame rate : 23.976 (24000/1001) FPS
    Standard : Component
    Color space : YUV
    Chroma subsampling : 4:2:0
    Bit depth : 8 bits
    Scan type : Progressive
    Bits/(Pixel*Frame) : 0.069
    Stream size : 3.02 GiB (72%)
    Color range : Limited
    Matrix coefficients : BT.709
    Codec configuration box : avcC

    Audio #1
    ID : 2
    Format : AAC LC SBR
    Format/Info : Advanced Audio Codec Low Complexity with Spectral Band Replication
    Commercial name : HE-AAC
    Format settings : Explicit
    Codec ID : mp4a-40-2
    Duration : 2 h 6 min
    Bit rate mode : Constant
    Bit rate : 128 kb/s
    Channel(s) : 2 channels
    Channel layout : L R
    Sampling rate : 48.0 kHz
    Frame rate : 23.438 FPS (2048 SPF)
    Compression mode : Lossy
    Stream size : 116 MiB (3%)
    Title : English
    Language : English
    Default : Yes
    Alternate group : 1

    Audio #2
    ID : 3
    Format : E-AC-3
    Format/Info : Enhanced AC-3
    Commercial name : Dolby Digital Plus
    Codec ID : ec-3
    Duration : 2 h 6 min
    Bit rate mode : Constant
    Bit rate : 640 kb/s
    Channel(s) : 6 channels
    Channel layout : L R C LFE Ls Rs
    Sampling rate : 48.0 kHz
    Frame rate : 31.250 FPS (1536 SPF)
    Compression mode : Lossy
    Stream size : 579 MiB (13%)
    Title : English
    Language : English
    Service kind : Complete Main
    Default : No
    Alternate group : 1
    Dialog Normalization : -27 dB
    compr : -0.28 dB
    dialnorm_Average : -27 dB
    dialnorm_Minimum : -27 dB
    dialnorm_Maximum : -27 dB

    Audio #3
    ID : 4
    Format : AAC LC SBR
    Format/Info : Advanced Audio Codec Low Complexity with Spectral Band Replication
    Commercial name : HE-AAC
    Format settings : Explicit
    Codec ID : mp4a-40-2
    Duration : 2 h 6 min
    Bit rate mode : Constant
    Bit rate : 128 kb/s
    Channel(s) : 2 channels
    Channel layout : L R
    Sampling rate : 48.0 kHz
    Frame rate : 23.438 FPS (2048 SPF)
    Compression mode : Lossy
    Stream size : 116 MiB (3%)
    Title : French
    Language : French
    Default : No
    Alternate group : 1

    Audio #4
    ID : 5
    Format : AAC LC SBR
    Format/Info : Advanced Audio Codec Low Complexity with Spectral Band Replication
    Commercial name : HE-AAC
    Format settings : Explicit
    Codec ID : mp4a-40-2
    Duration : 2 h 6 min
    Bit rate mode : Constant
    Bit rate : 128 kb/s
    Channel(s) : 2 channels
    Channel layout : L R
    Sampling rate : 48.0 kHz
    Frame rate : 23.438 FPS (2048 SPF)
    Compression mode : Lossy
    Stream size : 116 MiB (3%)
    Title : Indonesian
    Default : No
    Alternate group : 1

    Audio #5
    ID : 6
    Format : AAC LC SBR
    Format/Info : Advanced Audio Codec Low Complexity with Spectral Band Replication
    Commercial name : HE-AAC
    Format settings : Explicit
    Codec ID : mp4a-40-2
    Duration : 2 h 6 min
    Bit rate mode : Constant
    Bit rate : 128 kb/s
    Channel(s) : 2 channels
    Channel layout : L R
    Sampling rate : 48.0 kHz
    Frame rate : 23.438 FPS (2048 SPF)
    Compression mode : Lossy
    Stream size : 116 MiB (3%)
    Title : Japanese (Original)
    Language : Japanese
    Default : No
    Alternate group : 1

    Audio #6
    ID : 7
    Format : AAC LC SBR
    Format/Info : Advanced Audio Codec Low Complexity with Spectral Band Replication
    Commercial name : HE-AAC
    Format settings : Explicit
    Codec ID : mp4a-40-2
    Duration : 2 h 6 min
    Bit rate mode : Constant
    Bit rate : 128 kb/s
    Channel(s) : 2 channels
    Channel layout : L R
    Sampling rate : 48.0 kHz
    Frame rate : 23.438 FPS (2048 SPF)
    Compression mode : Lossy
    Stream size : 116 MiB (3%)
    Title : Thai
    Language : Thai
    Default : No
    Alternate group : 1

    Text #1
    ID : 8
    Format : Timed Text
    Muxing mode : sbtl
    Codec ID : tx3g
    Duration : 1 h 58 min
    Bit rate mode : Variable
    Bit rate : 58 b/s
    Frame rate : 0.488 FPS
    Stream size : 50.4 KiB (0%)
    Title : English
    Language : English
    Default : Yes
    Forced : No
    Alternate group : 3
    Count of events : 1669

    Text #2
    ID : 9
    Format : Timed Text
    Muxing mode : sbtl
    Codec ID : tx3g
    Duration : 2 h 4 min
    Bit rate mode : Variable
    Bit rate : 67 b/s
    Frame rate : 0.503 FPS
    Stream size : 60.9 KiB (0%)
    Title : English (CC)
    Language : English
    Default : No
    Forced : No
    Alternate group : 3
    Count of events : 1771

    Text #3
    ID : 10
    Format : Timed Text
    Muxing mode : sbtl
    Codec ID : tx3g
    Duration : 1 h 35 min
    Bit rate mode : Variable
    Bit rate : 1 b/s
    Frame rate : 0.007 FPS
    Stream size : 573 Bytes (0%)
    Title : English (Forced Narrative)
    Language : English
    Default : No
    Forced : No
    Alternate group : 3
    Count of events : 18

    Text #4
    ID : 11
    Format : Timed Text
    Muxing mode : sbtl
    Codec ID : tx3g
    Duration : 1 h 58 min
    Bit rate mode : Variable
    Bit rate : 73 b/s
    Frame rate : 0.494 FPS
    Stream size : 63.0 KiB (0%)
    Title : French
    Language : French
    Default : No
    Forced : No
    Alternate group : 3
    Count of events : 1689

    Text #5
    ID : 13
    Format : VobSub
    Codec ID : mp4s-E0
    Codec ID/Info : The same subtitle format used on DVDs
    Duration : 2 h 4 min
    Bit rate mode : Constant
    Bit rate : 5 143 b/s
    Frame rate : 0.148 FPS
    Stream size : 4.59 MiB (0%)
    Title : Chinese (Simplified)
    Language : Chinese
    Default : No
    Forced : No
    Alternate group : 3

    Text #6
    ID : 14
    Format : VobSub
    Codec ID : mp4s-E0
    Codec ID/Info : The same subtitle format used on DVDs
    Duration : 2 h 4 min
    Bit rate mode : Constant
    Bit rate : 8 509 b/s
    Frame rate : 0.237 FPS
    Stream size : 7.58 MiB (0%)
    Title : Japanese (CC)
    Language : Japanese
    Default : No
    Forced : No
    Alternate group : 3

    Text #7
    ID : 15
    Format : VobSub
    Codec ID : mp4s-E0
    Codec ID/Info : The same subtitle format used on DVDs
    Duration : 2 h 4 min
    Bit rate mode : Constant
    Bit rate : 5 346 b/s
    Frame rate : 0.162 FPS
    Stream size : 4.77 MiB (0%)
    Title : Korean
    Language : Korean
    Default : No
    Forced : No
    Alternate group : 3

    Text #8
    ID : 16
    Format : VobSub
    Codec ID : mp4s-E0
    Codec ID/Info : The same subtitle format used on DVDs
    Duration : 2 h 4 min
    Bit rate mode : Constant
    Bit rate : 6 646 b/s
    Frame rate : 0.148 FPS
    Stream size : 5.93 MiB (0%)
    Title : Thai
    Language : Thai
    Default : No
    Forced : No
    Alternate group : 3

    Text #9
    ID : 17
    Format : VobSub
    Codec ID : mp4s-E0
    Codec ID/Info : The same subtitle format used on DVDs
    Duration : 2 h 4 min
    Bit rate mode : Constant
    Bit rate : 7 449 b/s
    Frame rate : 0.149 FPS
    Stream size : 6.64 MiB (0%)
    Title : Vietnamese
    Language : Vietnamese
    Default : No
    Forced : No
    Alternate group : 3




    Godzilla_Minus_One.mp4
    http://www.filecondo.com/dl.php?f=I0aec31Sepu7

    4.51 GB

  2. The Following User Says Thank You to Duckload.us For This Useful Post:

    scsyn (06-06-2024)

  3. #2

  4. #3
    Junior Member
    สมัครเมื่อ
    Oct 2018
    โพสต์
    2
    Thanks
    0
    Thanked 0 Times in 0 Posts

    Premier asual Dating - Live Women

    Experience carefree connections with the top-rated site for casual dating adventures.
    Real-life Females
    Prime casual Dating

+ ตอบกลับกระทู้

ข้อมูลกระทู้

Users Browsing this Thread

ในขณะนี้มี 1 ท่านดูกระทู้อยู่. (0 สมาชิกและ 1 ผู้เยี่ยมชม)

     

กฎการโพสต์ข้อความ

  • ท่าน ไม่สามารถ ตั้งกระทู้ใหม่ได้
  • ท่าน ไม่สามารถ ตอบกระทู้ได้
  • ท่าน ไม่สามารถ แนบไฟล์ได้
  • ท่าน ไม่สามารถ แก้ไขข้อความโพสต์ได้
  • BB code สถานะ เปิด
  • Smilies สถานะ เปิด
  • [IMG] สถานะ เปิด
  • HTML สถานะ ปิด