+ ตอบกลับกระทู้
สรุปผลการค้นหา 1 ถึง 3 จากทั้งหมด 3
  1. #1
    Administrators รูปส่วนตัว Duckload.us
    สมัครเมื่อ
    Dec 2010
    โพสต์
    152,147
    Thanks
    7
    Thanked 159,125 Times in 69,604 Posts

    Lightbulb [จีน]-[Monomax] Detective Dee The Skeleton General (2022) ตี๋เหรินเจี๋ย ปริศนาโครงกระดูก [เสียง:ไทย-จีน][บรรยาย: ไทย PGS/SR Monomax]-WEB-DL.H.264.1080p. [Rip]-[พากย์ไทย บรรยายไทย]




    เรื่องย่อ ตี๋เหรินเจี๋ย ปริศนาโครงกระดูก Detective Dee: The Skeleton General
    ในค่ำคืนหนึ่ง ณ เมืองยี่โจว ผู้ตรวจการสกุลซือได้แอบจัดพิธีวิวาห์วิญญาณให้แก่ศพ ของลูกชายที่ตายไป แต่แล้วร่างของเจ้าสาวก็กลายเป็นโครงกระดูกไล่ฆ่าผู้ คนในจวน จักรพรรดินีอู่จึงมีคำสั่งให้ ตี๋เหรินเจี๋ย (รับบทโดย เฮ่อกัง) ผู้ช่วยราชเลขาธิการ และ อวี้ฉือฉิง (รับบทโดย กูจื่ออวิ๋น) สายลับหญิงคนสนิท ออกเดินทางไปยังเมืองยี่โจว เพื่อไขคดีปริศนา โดยมี จี้หลิงเฟิง (รับบทโดย เกาจื่อกัง) ผู้บัญชาการเมืองยี่โจ และ อ๋องเยว่หลี่เจิน (รับบทโดย เสินหมิง) คอยให้ความช่วยเหลือ


    Video
    ID : 1
    Format : AVC
    Format/Info : Advanced Video Codec
    Format profile : High@L4
    Format settings : CABAC / 4 Ref Frames
    Format settings, CABAC : Yes
    Format settings, Reference fra : 4 frames
    Codec ID : V_MPEG4/ISO/AVC
    Duration : 1 h 17 min
    Bit rate : 4 000 kb/s
    Width : 1 920 pixels
    Height : 1 080 pixels
    Display aspect ratio : 16:9
    Frame rate mode : Constant
    Frame rate : 24.000 FPS
    Color space : YUV
    Chroma subsampling : 4:2:0
    Bit depth : 8 bits
    Scan type : Progressive
    Bits/(Pixel*Frame) : 0.080
    Stream size : 2.13 GiB (93%)
    Writing library : x264 core 148
    Encoding settings : cabac=1 / ref=3 / deblock=1:0:0 / analyse=0x3:0x113 / me=hex / subme=7 / psy=1 / psy_rd=1.00:0.00 / mixed_ref=1 / me_range=16 / chroma_me=1 / trellis=1 / 8x8dct=1 / cqm=0 / deadzone=21,11 / fast_pskip=1 / chroma_qp_offset=-2 / threads=18 / lookahead_threads=3 / sliced_threads=0 / nr=0 / decimate=1 / interlaced=0 / bluray_compat=0 / constrained_intra=0 / bframes=3 / b_pyramid=2 / b_adapt=1 / b_bias=0 / direct=1 / weightb=1 / open_gop=0 / weightp=2 / keyint=240 / keyint_min=121 / scenecut=40 / intra_refresh=0 / rc_lookahead=40 / rc=abr / mbtree=1 / bitrate=4000 / ratetol=1.0 / qcomp=0.60 / qpmin=0 / qpmax=69 / qpstep=4 / ip_ratio=1.40 / aq=1:1.00
    Default : Yes
    Forced : No

    Audio #1
    ID : 2
    Format : AAC LC
    Format/Info : Advanced Audio Codec Low Complexity
    Codec ID : A_AAC-2
    Duration : 1 h 17 min
    Bit rate : 128 kb/s
    Channel(s) : 2 channels
    Channel layout : L R
    Sampling rate : 48.0 kHz
    Frame rate : 46.875 FPS (1024 SPF)
    Compression mode : Lossy
    Stream size : 70.9 MiB (3%)
    Title : [Thai-AAC]
    Language : Thai
    Default : Yes
    Forced : No

    Audio #2
    ID : 3
    Format : AAC LC
    Format/Info : Advanced Audio Codec Low Complexity
    Codec ID : A_AAC-2
    Duration : 1 h 17 min
    Bit rate : 128 kb/s
    Channel(s) : 2 channels
    Channel layout : L R
    Sampling rate : 48.0 kHz
    Frame rate : 46.875 FPS (1024 SPF)
    Compression mode : Lossy
    Stream size : 70.9 MiB (3%)
    Title : [Chinese-AAC]
    Language : Chinese
    Default : No
    Forced : No

    Text #1
    ID : 4
    Format : PGS
    Muxing mode : zlib
    Codec ID : S_HDMV/PGS
    Codec ID/Info : Picture based subtitle format used on BDs/HD-DVDs
    Duration : 1 h 15 min
    Bit rate : 46.7 kb/s
    Count of elements : 1976
    Stream size : 25.3 MiB (1%)
    Title : [Thai Monomax PGS]
    Language : Thai
    Default : Yes
    Forced : No

    Text #2
    ID : 5
    Format : UTF-8
    Codec ID : S_TEXT/UTF8
    Codec ID/Info : UTF-8 Plain Text
    Duration : 1 h 15 min
    Bit rate : 110 b/s
    Count of elements : 988
    Stream size : 61.5 KiB (0%)
    Title : Thai
    Language : Thai
    Default : No
    Forced : No



    Detective_Dee_The_Skeleton_General_(2022)_ตี๋เหริน เจี๋ย_ปริศนาโครงกระดูก.1080p_Modified_By_mxn.mkv
    http://www.filecondo.com/dl.php?f=G803a41Sepp9

    2.45 GB

  2. The Following 4 Users Say Thank You to Duckload.us For This Useful Post:

    Jodz14 (06-10-2024), Nam1499 (06-05-2024), noi54 (06-07-2024), paripan (06-06-2024)

  3. #2
    Senior Member
    สมัครเมื่อ
    Oct 2013
    โพสต์
    2,541
    Thanks
    0
    Thanked 0 Times in 0 Posts
    ขอบคุณครับ

  4. #3
    Senior Member
    สมัครเมื่อ
    Feb 2024
    โพสต์
    386
    Thanks
    353
    Thanked 0 Times in 0 Posts
    ข อ บ คุ ณ ม า ก ค่ ะ

+ ตอบกลับกระทู้

ข้อมูลกระทู้

Users Browsing this Thread

ในขณะนี้มี 1 ท่านดูกระทู้อยู่. (0 สมาชิกและ 1 ผู้เยี่ยมชม)

     

กฎการโพสต์ข้อความ

  • ท่าน ไม่สามารถ ตั้งกระทู้ใหม่ได้
  • ท่าน ไม่สามารถ ตอบกระทู้ได้
  • ท่าน ไม่สามารถ แนบไฟล์ได้
  • ท่าน ไม่สามารถ แก้ไขข้อความโพสต์ได้
  • BB code สถานะ เปิด
  • Smilies สถานะ เปิด
  • [IMG] สถานะ เปิด
  • HTML สถานะ ปิด